Классический форум-трекер
canvas not supported
Нас вместе: 4 114 377

Кинг Конг (Расширенная Версия) / King Kong (Extended Edition) (2005) [720p] HDDVD-BDRip


 
 
RSS
Начать новую тему   Ответить на тему    Торрент-трекер NNM-Club -> Архив торрентов -> Архив Видео
Автор Сообщение
Alic163 ®
Стаж: 8 лет 2 мес.
Сообщений: 87
Ratio: 17,504
Поблагодарили: 6613
100%
armenia.gif
Кинг Конг (Расширенная Версия) / King Kong (Extended Edition) (2005) [720p] BDRip
Русское название: Кинг Конг (Расширенная Версия)
Оригинальное название: King Kong (Extended Edition)
Год выпуска: 2005
Жанр: Приключения

Описание фильма:
1930 год. Группа исследователей отправилась на таинственный Остров Черепа, чтобы изучить легенды о гигантской горилле, прозванной Конг. Неожиданно они обнаруживают, что Король Конг - реальное существо, живущее в массивных джунглях, где сохранились и в течение миллионов лет были скрыты доисторические существа. Но в поисках 25-футовой обезьяны, исследователи сталкиваются не только с Кинг Конгом, но и его врагами - динозаврами. Только участие красивой женщины помогает экспедиции утихомирить уникальную гориллу и привезти её в Нью-Йорк.
Но вряд ли Кинг Конгу понравятся клетка и кандалы...

Режиссер: Питер Джексон
Актеры: Наоми Уоттс, Джек Блэк, Эдриен Броуди, Энди Серкис, Джейми Белл

Продолжительность: 03:20:07
Перевод: Дублированный, многоголосый, двухголосый, закадровый



Дата мировой премьеры: 5 декабря 2005
Дата российской премьеры: 14 декабря 2005

Качество: BDRip
Формат: MKV
Видео: MPEG-4 AVC (H264),1280x544 at 23.976 fps, x264, ~5614 Kbps avg
Аудио кодек: AC3, DTS
Аудио#1: Russian: 48 kHz, AC3, 3/2 (L,C,R,l,r) + LFE ch, ~384.00 kbps avg, [Дубляж]
Аудио#2: Russian: 48 kHz, AC3, 3/2 (L,C,R,l,r) + LFE ch, ~448.00 kbps avg, [Многоголсый, Киномания]
Аудио#3: Russian: 48 kHz, AC3, 3/2 (L,C,R,l,r) + LFE ch, ~448.00 kbps avg, [Двухголосый, С.Р.И.]
Аудио#4: English: 48 kHz, DTS, 3/2 (L,C,R,l,r) + LFE ch, ~1536.00 kbps avg
Аудио#5: English: 48 kHz, OGG, 2/0 (L,R), ~80.00 kbps avg
Субтитры: Russian, English, French, Romanian, Slovenian, Spanish

Доп. информация: Рип ESiR
ESIR использовал гибридный исходник: места и фрагменты расширенной версии взяты с BluRay, остальные фрагменты - с HDDVD.
За дубляж спасибо nuric85, моменты расширенной версией переведены двухголоской с дорожки Гланца

Ранее аналогичные релизы
Общее
Уникальный идентификатор : 202891169380874751832352082974189444754 (0x98A36AF8A05811E99933D4B3E6665E92)
Полное имя : D:\ЖКС - РАЗДАЧА\Кинг Конг\King.Kong..mkv
Формат : Matroska
Версия формата : Version 1
Размер файла : 11,9 Гбайт
Продолжительность : 3 ч. 20 м.
Режим общего битрейта : Переменный
Общий поток : 8483 Кбит/сек
Название фильма : King Kong Extended Cut (2005) 720p HDDVD-BluRay
Дата кодирования : UTC 2009-02-14 15:26:17
Программа кодирования : mkvmerge v2.4.0 ('Fumbling Towards Ecstasy') built on Oct 11 2008 20:13:15
Библиотека кодирования : libebml v0.7.7 + libmatroska v0.8.1
Attachment : Yes / Yes / Yes

Видео
Идентификатор : 1
Формат : AVC
Формат/Информация : Advanced Video Codec
Профиль формата : High@L4.1
Параметр CABAC формата : Да
Параметр ReFrames формата : 10 кадров
Идентификатор кодека : V_MPEG4/ISO/AVC
Продолжительность : 3 ч. 20 м.
Битрейт : 5614 Кбит/сек
Ширина : 1280 пикселей
Высота : 544 пикселя
Соотношение сторон : 2,35:1
Режим частоты кадров : Постоянный
Частота кадров : 23,976 кадра/сек
Цветовое пространство : YUV
Субдискретизация насыщенности : 4:2:0
Битовая глубина : 8 бит
Тип развёртки : Прогрессивная
Бит/(Пиксели*Кадры) : 0.336
Размер потока : 7,61 Гбайт (64%)
Заголовок : ViDEO
Библиотека кодирования : x264 core 66 r1109M 75b495f
Настройки программы : cabac=1 / ref=10 / deblock=1:-3:-3 / analyse=0x3:0x133 / me=umh / subme=9 / psy_rd=1.0:0.0 / mixed_ref=1 / me_range=32 / chroma_me=1 / trellis=0 / 8x8dct=1 / cqm=2 / deadzone=9,9 / chroma_qp_offset=-2 / threads=3 / nr=0 / decimate=1 / mbaff=0 / bframes=3 / b_pyramid=1 / b_adapt=2 / b_bias=0 / direct=3 / wpredb=1 / keyint=250 / keyint_min=25 / scenecut=40(pre) / rc=2pass / bitrate=5614 / ratetol=1.0 / qcomp=0.60 / qpmin=10 / qpmax=51 / qpstep=4 / cplxblur=20.0 / qblur=0.5 / ip_ratio=1.40 / pb_ratio=1.30 / aq=1:0.80
Язык : English
Default : Да
Forced : Нет

Аудио #1
Идентификатор : 2
Формат : AC-3
Формат/Информация : Audio Coding 3
Расширение режима : CM (complete main)
Параметр Endianness формата : Big
Идентификатор кодека : A_AC3
Продолжительность : 3 ч. 20 м.
Вид битрейта : Постоянный
Битрейт : 384 Кбит/сек
Каналы : 6 каналов
Расположение каналов : Front: L C R, Side: L R, LFE
Частота : 48,0 КГц
Битовая глубина : 16 бит
Метод сжатия : С потерями
Размер потока : 550 Мбайт (5%)
Заголовок : AC3 5.1 384 Kbps [Дубляж]
Язык : Russian
Default : Да
Forced : Нет

Аудио #2
Идентификатор : 3
Формат : AC-3
Формат/Информация : Audio Coding 3
Расширение режима : CM (complete main)
Параметр Endianness формата : Big
Идентификатор кодека : A_AC3
Продолжительность : 3 ч. 20 м.
Вид битрейта : Постоянный
Битрейт : 448 Кбит/сек
Каналы : 6 каналов
Расположение каналов : Front: L C R, Side: L R, LFE
Частота : 48,0 КГц
Битовая глубина : 16 бит
Метод сжатия : С потерями
Размер потока : 641 Мбайт (5%)
Заголовок : AC3 5.1 448 Kbps [Киномания]
Язык : Russian
Default : Нет
Forced : Нет

Аудио #3
Идентификатор : 4
Формат : AC-3
Формат/Информация : Audio Coding 3
Расширение режима : CM (complete main)
Параметр Endianness формата : Big
Идентификатор кодека : A_AC3
Продолжительность : 3 ч. 20 м.
Вид битрейта : Постоянный
Битрейт : 448 Кбит/сек
Каналы : 6 каналов
Расположение каналов : Front: L C R, Side: L R, LFE
Частота : 48,0 КГц
Битовая глубина : 16 бит
Метод сжатия : С потерями
Размер потока : 641 Мбайт (5%)
Заголовок : AC3 5.1 448 Kbps [С.Р.И.]
Язык : Russian
Default : Нет
Forced : Нет

Аудио #4
Идентификатор : 5
Формат : DTS
Формат/Информация : Digital Theater Systems
Идентификатор кодека : A_DTS
Продолжительность : 3 ч. 20 м.
Вид битрейта : Постоянный
Битрейт : 1510 Кбит/сек
Каналы : 6 каналов
Расположение каналов : Front: L C R, Side: L R, LFE
Частота : 48,0 КГц
Битовая глубина : 24 бит
Метод сжатия : С потерями
Размер потока : 2,11 Гбайт (18%)
Заголовок : DTS 5.1 1536 kbps
Язык : English
Default : Нет
Forced : Нет

Аудио #5
Идентификатор : 6
Формат : Vorbis
Параметр Floor формата : 1
Идентификатор кодека : A_VORBIS
Продолжительность : 3 ч. 20 м.
Вид битрейта : Переменный
Битрейт : 80,0 Кбит/сек
Каналы : 2 канала
Частота : 48,0 КГц
Метод сжатия : С потерями
Размер потока : 115 Мбайт (1%)
Заголовок : Feature Commentary with Director/Co-Writer/Producer Peter Jackson and Co-Writer/Producer Philippa Boyens
Библиотека кодирования : libVorbis 1.2 (UTC 2007-06-22)
Язык : English
Default : Нет
Forced : Нет

Текст #1
Идентификатор : 7
Формат : UTF-8
Идентификатор кодека : S_TEXT/UTF8
Идентификатор кодека/Информация : UTF-8 Plain Text
Язык : Russian
Default : Нет
Forced : Нет

Текст #2
Идентификатор : 8
Формат : ASS
Идентификатор кодека : S_TEXT/ASS
Идентификатор кодека/Информация : Advanced Sub Station Alpha
Метод сжатия : Без потерь
Язык : English
Default : Нет
Forced : Нет

Текст #3
Идентификатор : 9
Формат : ASS
Идентификатор кодека : S_TEXT/ASS
Идентификатор кодека/Информация : Advanced Sub Station Alpha
Метод сжатия : Без потерь
Язык : French
Default : Нет
Forced : Нет

Текст #4
Идентификатор : 10
Формат : ASS
Идентификатор кодека : S_TEXT/ASS
Идентификатор кодека/Информация : Advanced Sub Station Alpha
Метод сжатия : Без потерь
Язык : Romanian
Default : Нет
Forced : Нет

Текст #5
Идентификатор : 11
Формат : ASS
Идентификатор кодека : S_TEXT/ASS
Идентификатор кодека/Информация : Advanced Sub Station Alpha
Метод сжатия : Без потерь
Язык : Slovenian
Default : Нет
Forced : Нет

Текст #6
Идентификатор : 12
Формат : ASS
Идентификатор кодека : S_TEXT/ASS
Идентификатор кодека/Информация : Advanced Sub Station Alpha
Метод сжатия : Без потерь
Язык : Spanish
Default : Нет
Forced : Нет
Скриншоты:


Время раздачи: 09:00 до 23:00 по возможности
[NNM-Club.ru]_King.Kong..mkv.torrent
 Торрент: Платиновая раздача  Зарегистрирован
 
Скачать


 Зарегистрирован:   23 Янв 2013 23:26:49
 Размер:   11,9 GB  (
 Рейтинг:   4,8 (Голосов: 54)
 Поблагодарили:   145
 Проверка:   Оформление проверено модератором 25 Янв 2013 08:26:17
Как cкачать  ·  Как раздать  ·  Правильно оформить  ·  Поднять ратио!  
alancor
Стаж: 8 лет 8 мес.
Сообщений: 433
Ratio: 388,278
100%
russia.gif
Из всех кинг-конгов - эта версия самая классная. Судя по скринам, качество картинки на высоте.
Спасибо.
Топик был перенесен из форума Зарубежные Фильмы (HD, UHD-LQ) в форум Архив Видео



Исправил релиз - напиши ЛС karfagen1975, дав ссылку на релиз.
Если нет ответа 24 часа - нажми на кнопку "Обратить внимание модераторов".
Показать сообщения:   
Начать новую тему   Ответить на тему    Торрент-трекер NNM-Club -> Архив торрентов -> Архив Видео Часовой пояс: GMT + 3
Страница 1 из 1