Классический форум-трекер
canvas not supported
Нас вместе: 4 093 447

Хранители / Watchmen (2009) BDRip [720p, 1080p) ATV/iPad


 
 
RSS
Начать новую тему   Ответить на тему    Торрент-трекер NNM-Club -> Аудио и Видео -> Зарубежное видео HD для устройств Apple
Автор Сообщение
gekka ®
RG Apple
 
Стаж: 13 лет
Сообщений: 2123
Ratio: 96,242
Поблагодарили: 131823
100%
Откуда: Москва, Дорогомилово
ussr.gif
Хранители / Watchmen
«Правосудие настигнет каждого из нас. Не важно за что.»

7.6/10 | 7.3/10
Общая информация

Год: 2009
Страна: США
Студия: © DC Comics, Lawrence Gordon Productions, Legendary Pictures, Paramount Pictures, Warner Bros. Pictures Co. (США)
Жанр: фантастика, боевик, триллер, детектив
Время: 02:42:05
Перевод: Русский профессиональный (дублированный)
Навигация: по главам (с изображениями)
Рейтинг MPAA - R
Создатели и актеры

Режиссёр: Зак Снайдер
Сценарий: Дэвид Хэйтер, Алекс Тсе, Дэйв Гиббонс
Продюсер: Лоуренс Гордон, Ллойд Левин, Дебора Снайдер
В ролях: Патрик Уилсон, Мэттью Гуд, Малин Акерман, Джеки Эрл Хейли, Билли Крудап, Джеффри Дин Морган, Карла Гуджино, Мэтт Фрюэр, Стивен МакХэтти, Лаура Меннелл
Описание: Действие картины разворачивается в параллельной реальности, в Америке 1985 года. В этом мире супергерои стали частью повседневной жизни общества, а Часы Судного Дня, застыв в пяти минутах от полуночи, отсчитывают время до столкновения ведущих мировых держав. После убийства одного из своих прежних коллег Роршах — супергерой, никогда не снимающий маски, — полон решимости свершить суд Линча. Он начинает расследование заговора, призванного уничтожить или дискредитировать всех супергероев прошлого и настоящего. Он собирает своих соратников — отставной легион борцов с преступностью, но лишь один из них обладает подлинной силой. Постепенно Роршах осознает пугающий масштаб заговора, связанного с общим прошлым героев и сулящего катастрофические последствия в будущем. Они хранят наш покой, но кто охранит нас от Хранителей?

Дата мировой премьеры: 23 февраля 2009
Дата российской премьеры: 5 марта 2009, «Централ Партнершип»
Дата выхода DVD релиза: 1 сентября 2009, «Юниверсал Пикчерс Рус»
Дата выхода Blu-Ray релиза: 1 сентября 2009, «Юниверсал Пикчерс Рус»
HD 1080p

Видео: H.264, 23.976 fps, 11.0 Мбит/сек, 1920x800 (2.40:1)
Аудио: * ААС 2.0 160 kbps - Русский профессиональный (дублированный)
* ААС 2.0 160 kbps - Английский
* АС3 5.1 640 kbps - Русский профессиональный (дублированный)
* АС3 5.1 640 kbps - Английский

Субтитры:
* 3GPP Text - Русские
* 3GPP Text - Английские
Код:
Общее
Полное имя                               : /Users/gekkas/Movies/CREATE/Watchmen/Watchmen (1080p HD).m4v
Формат                                   : MPEG-4
Идентификатор кодека                     : M4V
Размер файла                             : 14,2 Гбайт
Продолжительность                        : 2 ч. 42 м.
Режим общего битрейта                    : Переменный
Общий поток                              : 12,6 Мбит/сек
Название фильма                          : Хранители
Исполнитель                              : Zack Snyder
Жанр                                     : Action & Adventure
Дата записи                              : UTC 2009-03-06 08:00:00
Дата кодирования                         : UTC 2012-11-07 19:50:02
Дата пометки                             : UTC 2012-11-08 10:57:06
Правообладатель                          : ©  Warner Bros. Pictures, Paramount Pictures
Обложка                                  : Yes
Примечание                               : «Правосудие настигнет каждого из нас. Не важно за что.»
sonm                                     : Watchmen
desc                                     : Действие картины разворачивается в параллельной реальности, в Америке 1985 года. В этом мире супергерои стали частью повседневной жизни общества, а Часы Судного Дня, застыв в пяти минутах от полуночи, отсчитывают время до столкновения ведущих мировых
ldes                                     : Действие картины разворачивается в параллельной реальности, в Америке 1985 года. В этом мире супергерои стали частью повседневной жизни общества, а Часы Судного Дня, застыв в пяти минутах от полуночи, отсчитывают время до столкновения ведущих мировых держав. После убийства одного из своих прежних коллег Роршах — супергерой, никогда не снимающий маски, — полон решимости свершить суд Линча. Он начинает расследование заговора, призванного уничтожить или дискредитировать всех супергероев прошлого и настоящего. Он собирает своих соратников — отставной легион борцов с преступностью, но лишь один из них обладает подлинной силой. Постепенно Роршах осознает пугающий масштаб заговора, связанного с общим прошлым героев и сулящего катастрофические последствия в будущем. Они хранят наш покой, но кто охранит нас от Хранителей?
hdvd                                     : 2
stik                                     : 9
rtng                                     : 0
akID                                     : -1
cnID                                     : 308856387
xid                                      : Apple:vendor_id:2009-252641
iTunEXTC                                 : mpaa|R|400|
iTunMOVI                                 : <?xml version="1.0" encoding="UTF-8"?> / <!DOCTYPE plist PUBLIC "-//Apple//DTD PLIST 1.0//EN" "http://www.apple.com/DTDs/PropertyList-1.0.dtd"> / <plist version="1.0"> / <dict> /  <key>cast</key> /  <array> /   <dict> /    <key>name</key> /    <string>Патрик Уилсон</string> /   </dict> /   <dict> /    <key>name</key> /    <string>Мэттью Гуд</string> /   </dict> /   <dict> /    <key>name</key> /    <string>Малин Акерман</string> /   </dict> /   <dict> /    <key>name</key> /    <string>Джеки Эрл Хейли</string> /   </dict> /   <dict> /    <key>name</key> /    <string>Билли Крудап</string> /   </dict> /   <dict> /    <key>name</key> /    <string>Джеффри Дин Морган</string> /   </dict> /   <dict> /    <key>name</key> /    <string>Карла Гуджино</string> /   </dict> /   <dict> /    <key>name</key> /    <string>Мэтт Фрюэр</string> /   </dict> /   <dict> /    <key>name</key> /    <string>Стивен МакХэтти</string> /   </dict> /   <dict> /    <key>name</key> /    <string>Лаура Меннелл</string> /   </dict> /  </array> /  <key>directors</key> /  <array> /   <dict> /    <key>name</key> /    <string>Зак Снайдер</string> /   </dict> /  </array> /  <key>producers</key> /  <array> /   <dict> /    <key>name</key> /    <string>Лоуренс Гордон</string> /   </dict> /   <dict> /    <key>name</key> /    <string>Ллойд Левин</string> /   </dict> /   <dict> /    <key>name</key> /    <string>Дебора Снайдер</string> /   </dict> /  </array> /  <key>screenwriters</key> /  <array> /   <dict> /    <key>name</key> /    <string>Дэвид Хэйтер</string> /   </dict> /   <dict> /    <key>name</key> /    <string>Алекс Тсе</string> /   </dict> /   <dict> /    <key>name</key> /    <string>Дэйв Гиббонс</string> /   </dict> /  </array> /  <key>studio</key> /  <string> Warner Bros. Pictures, Paramount Pictures, Legendary Pictures, DC Comics, Lawrence Gordon Productions</string> / </dict> / </plist>

Видео #1
Идентификатор                            : 1
Формат                                   : AVC
Формат/Информация                        : Advanced Video Codec
Профиль формата                          : High@L4.1
Параметр CABAC формата                   : Да
Параметр ReFrames формата                : 4 кадра
Идентификатор кодека                     : avc1
Идентификатор кодека/Информация          : Advanced Video Coding
Продолжительность                        : 2 ч. 42 м.
Битрейт                                  : 11,0 Мбит/сек
Максимальный битрейт                     : 35,3 Мбит/сек
Ширина                                   : 1920 пикселей
Высота                                   : 800 пикселей
Соотношение сторон                       : 2,40:1
Режим частоты кадров                     : Постоянный
Частота кадров                           : 23,976 кадра/сек
Цветовое пространство                    : YUV
Субдискретизация насыщенности            : 4:2:0
Битовая глубина                          : 8 бит
Тип развёртки                            : Прогрессивная
Бит/(Пиксели*Кадры)                      : 0.297
Размер потока                            : 12,4 Гбайт (87%)
Библиотека кодирования                   : x264 core 128 r2216 198a7ea
Настройки программы                      : cabac=1 / ref=5 / deblock=1:-1:-1 / analyse=0x3:0x133 / me=umh / subme=9 / psy=1 / psy_rd=1.00:0.15 / mixed_ref=1 / me_range=32 / chroma_me=1 / trellis=2 / 8x8dct=1 / cqm=0 / deadzone=21,11 / fast_pskip=0 / chroma_qp_offset=-3 / threads=18 / lookahead_threads=3 / sliced_threads=0 / nr=0 / decimate=1 / interlaced=0 / bluray_compat=0 / constrained_intra=0 / bframes=6 / b_pyramid=1 / b_adapt=2 / b_bias=0 / direct=1 / weightb=1 / open_gop=0 / weightp=2 / keyint=250 / keyint_min=24 / scenecut=40 / intra_refresh=0 / rc_lookahead=60 / rc=crf / mbtree=1 / crf=18.5 / qcomp=0.65 / qpmin=0 / qpmax=69 / qpstep=4 / vbv_maxrate=25000 / vbv_bufsize=25000 / crf_max=0.0 / nal_hrd=none / ip_ratio=1.40 / aq=2:0.90
Язык                                     : English
Дата кодирования                         : UTC 2012-11-07 19:50:02
Дата пометки                             : UTC 2012-11-07 19:54:15
Коэффициенты матрицы                     : BT.709

Видео #2
Идентификатор                            : 8
Формат                                   : JPEG
Идентификатор кодека                     : jpeg
Продолжительность                        : 2 ч. 42 м.
Вид битрейта                             : Переменный
Битрейт                                  : 1123 бит/сек
Ширина                                   : 640 пикселей
Высота                                   : 266 пикселей
Соотношение сторон                       : 2,40:1
Режим частоты кадров                     : Переменный
Частота кадров                           : 0,004 кадр/сек
Минимальная частота кадров               : 0,002 кадр/сек
Максимальная частота кадров              : 0,017 кадр/сек
Цветовое пространство                    : YUV
Субдискретизация насыщенности            : 4:2:0
Битовая глубина                          : 8 бит
Метод сжатия                             : С потерями
Бит/(Пиксели*Кадры)                      : 1.649
Размер потока                            : 1,44 Мбайт (0%)
Язык                                     : English
Дата кодирования                         : UTC 2012-11-07 20:26:22
Дата пометки                             : UTC 2012-11-07 20:26:23

Аудио #1
Идентификатор                            : 2
Формат                                   : AAC
Формат/Информация                        : Advanced Audio Codec
Профиль формата                          : LC
Идентификатор кодека                     : 40
Продолжительность                        : 2 ч. 42 м.
Вид битрейта                             : Переменный
Битрейт                                  : 165 Кбит/сек
Максимальный битрейт                     : 287 Кбит/сек
Каналы                                   : 2 канала
Расположение каналов                     : Front: L R
Частота                                  : 44,1 КГц
Метод сжатия                             : С потерями
Размер потока                            : 191 Мбайт (1%)
Язык                                     : Russian
Дата кодирования                         : UTC 2012-11-07 20:23:08
Дата пометки                             : UTC 2012-11-07 20:23:42

Аудио #2
Идентификатор                            : 3
Формат                                   : AAC
Формат/Информация                        : Advanced Audio Codec
Профиль формата                          : LC
Идентификатор кодека                     : 40
Продолжительность                        : 2 ч. 42 м.
Вид битрейта                             : Переменный
Битрейт                                  : 163 Кбит/сек
Максимальный битрейт                     : 279 Кбит/сек
Каналы                                   : 2 канала
Расположение каналов                     : Front: L R
Частота                                  : 48,0 КГц
Метод сжатия                             : С потерями
Размер потока                            : 190 Мбайт (1%)
Язык                                     : English
Дата кодирования                         : UTC 2012-11-07 20:23:08
Дата пометки                             : UTC 2012-11-07 20:24:08

Аудио #3
Идентификатор                            : 4
Формат                                   : AC-3
Формат/Информация                        : Audio Coding 3
Расширение режима                        : CM (complete main)
Параметр Endianness формата              : Big
Идентификатор кодека                     : ac-3
Продолжительность                        : 2 ч. 42 м.
Вид битрейта                             : Постоянный
Битрейт                                  : 640 Кбит/сек
Каналы                                   : 6 каналов
Расположение каналов                     : Front: L C R, Side: L R, LFE
Частота                                  : 48,0 КГц
Битовая глубина                          : 16 бит
Метод сжатия                             : С потерями
Размер потока                            : 742 Мбайт (5%)
Язык                                     : Russian
Дата кодирования                         : UTC 2012-11-07 20:23:08
Дата пометки                             : UTC 2012-11-07 20:24:58

Аудио #4
Идентификатор                            : 5
Формат                                   : AC-3
Формат/Информация                        : Audio Coding 3
Расширение режима                        : CM (complete main)
Параметр Endianness формата              : Big
Идентификатор кодека                     : ac-3
Продолжительность                        : 2 ч. 42 м.
Вид битрейта                             : Постоянный
Битрейт                                  : 640 Кбит/сек
Каналы                                   : 6 каналов
Расположение каналов                     : Front: L C R, Side: L R, LFE
Частота                                  : 48,0 КГц
Битовая глубина                          : 16 бит
Метод сжатия                             : С потерями
Размер потока                            : 742 Мбайт (5%)
Язык                                     : English
Дата кодирования                         : UTC 2012-11-07 20:23:08
Дата пометки                             : UTC 2012-11-07 20:25:42

Текст #1
Идентификатор                            : 6
Формат                                   : Timed text
Режим смешивания                         : sbtl
Идентификатор кодека                     : tx3g
Продолжительность                        : 2 ч. 35 м.
Вид битрейта                             : Переменный
Битрейт                                  : 56 бит/сек
Размер потока                            : 63,8 Кбайт (0%)
Язык                                     : English
Дата кодирования                         : UTC 2012-11-07 20:23:08
Дата пометки                             : UTC 2012-11-07 20:25:42

Текст #2
Идентификатор                            : 7
Формат                                   : Apple text
Идентификатор кодека                     : text
Продолжительность                        : 2 ч. 42 м.
Вид битрейта                             : Переменный
Битрейт                                  : 1 бит/сек
Размер потока                            : 1023 байт (0%)
Язык                                     : English
Дата кодирования                         : UTC 2012-11-07 20:25:42
Дата пометки                             : UTC 2012-11-07 20:25:42

Текст #3
Идентификатор                            : 9
Формат                                   : Timed text
Режим смешивания                         : sbtl
Идентификатор кодека                     : tx3g
Продолжительность                        : 2 ч. 42 м.
Вид битрейта                             : Переменный
Битрейт                                  : 76 бит/сек
Размер потока                            : 90,2 Кбайт (0%)
Язык                                     : Russian
Дата кодирования                         : UTC 2012-11-08 10:56:54
Дата пометки                             : UTC 2012-11-08 10:56:54

Меню
00:00:00.000                             : Chapter 1
00:05:41.633                             : Chapter 2
00:11:16.134                             : Chapter 3
00:15:11.994                             : Chapter 4
00:17:36.013                             : Chapter 5
00:21:43.928                             : Chapter 6
00:24:33.847                             : Chapter 7
00:29:32.312                             : Chapter 8
00:33:59.204                             : Chapter 9
00:38:30.725                             : Chapter 10
00:41:58.599                             : Chapter 11
00:43:36.280                             : Chapter 12
00:46:59.358                             : Chapter 13
00:51:14.196                             : Chapter 14
00:53:22.533                             : Chapter 15
00:56:02.901                             : Chapter 16
00:59:17.220                             : Chapter 17
01:04:14.142                             : Chapter 18
01:06:04.085                             : Chapter 19
01:09:26.454                             : Chapter 20
01:11:05.052                             : Chapter 21
01:13:51.719                             : Chapter 22
01:15:31.402                             : Chapter 23
01:19:15.960                             : Chapter 24
01:23:47.856                             : Chapter 25
01:27:01.758                             : Chapter 26
01:32:05.145                             : Chapter 27
01:37:48.946                             : Chapter 28
01:41:09.814                             : Chapter 29
01:46:16.161                             : Chapter 30
01:49:19.428                             : Chapter 31
01:52:35.082                             : Chapter 32
01:56:57.761                             : Chapter 33
01:57:58.238                             : Chapter 34
02:02:40.228                             : Chapter 35
02:09:31.555                             : Chapter 36
02:12:14.260                             : Chapter 37
02:16:39.650                             : Chapter 38
02:20:02.477                             : Chapter 39
02:23:28.558                             : Chapter 40
02:26:38.873                             : Chapter 41
02:30:43.785                             : Chapter 42
02:35:22.563                             : Chapter 43

x264 [info]: frame I:1658 Avg QP:15.70 size:209777 PSNR Mean Y:49.96 U:52.22 V:52.42 Avg:50.59 Global:50.08
x264 [info]: frame P:46643 Avg QP:18.84 size: 82427 PSNR Mean Y:46.98 U:49.74 V:50.15 Avg:47.70 Global:47.06
x264 [info]: frame B:184884 Avg QP:20.63 size: 49329 PSNR Mean Y:45.53 U:48.30 V:48.92 Avg:46.25 Global:45.62
x264 [info]: consecutive B-frames: 1.8% 2.2% 5.1% 8.0% 15.1% 60.8% 7.1%
x264 [info]: mb I I16..4: 36.7% 46.7% 16.6%
x264 [info]: mb P I16..4: 10.2% 18.7% 2.3% P16..4: 34.4% 14.2% 8.7% 0.5% 0.1% skip:10.9%
x264 [info]: mb B I16..4: 4.5% 3.0% 0.5% B16..8: 34.6% 9.3% 2.3% direct:12.9% skip:32.9% L0:42.3% L1:42.1% BI:15.6%
x264 [info]: 8x8 transform intra:48.8% inter:48.9%
x264 [info]: coded y,uvDC,uvAC intra: 86.5% 79.5% 59.6% inter: 36.6% 36.5% 12.4%
x264 [info]: i16 v,h,dc,p: 16% 6% 49% 29%
x264 [info]: i8 v,h,dc,ddl,ddr,vr,hd,vl,hu: 11% 9% 13% 9% 12% 11% 11% 11% 13%
x264 [info]: i4 v,h,dc,ddl,ddr,vr,hd,vl,hu: 9% 10% 11% 9% 12% 12% 12% 11% 14%
x264 [info]: i8c dc,h,v,p: 55% 16% 15% 13%
x264 [info]: Weighted P-Frames: Y:4.3% UV:2.8%
x264 [info]: ref P L0: 57.5% 9.9% 21.5% 10.4% 0.6% 0.1%
x264 [info]: ref B L0: 79.5% 15.5% 5.0%
x264 [info]: ref B L1: 90.4% 9.6%
x264 [info]: SSIM Mean Y:0.9801533 (17.023db)
x264 [info]: PSNR Mean Y:45.850 U:48.618 V:49.190 Avg:46.572 Global:45.894 kb/s:10950.43
Скриншоты HD 1080p


HD 720p

Видео: H.264, 23.976 fps, 5000 Кбит/сек, 1280x532 (2.40:1)
Аудио: * ААС 2.0 160 kbps - Русский профессиональный (дублированный)
* ААС 2.0 160 kbps - Английский
* АС3 5.1 640 kbps - Русский профессиональный (дублированный)
* АС3 5.1 640 kbps - Английский

Субтитры:
* 3GPP Text - Русские
* 3GPP Text - Английские
Код:
Общее
Полное имя                               : /Users/gekkas/Movies/CREATE/Watchmen/Watchmen (HD).m4v
Формат                                   : MPEG-4
Идентификатор кодека                     : M4V
Размер файла                             : 7,48 Гбайт
Продолжительность                        : 2 ч. 42 м.
Режим общего битрейта                    : Переменный
Общий поток                              : 6608 Кбит/сек
Название фильма                          : Хранители
Исполнитель                              : Zack Snyder
Жанр                                     : Action & Adventure
Дата записи                              : UTC 2009-03-06 08:00:00
Дата кодирования                         : UTC 2012-11-07 19:44:01
Дата пометки                             : UTC 2012-11-08 10:59:33
Правообладатель                          : ©  Warner Bros. Pictures, Paramount Pictures
Обложка                                  : Yes
Примечание                               : «Правосудие настигнет каждого из нас. Не важно за что.»
sonm                                     : Watchmen
desc                                     : Действие картины разворачивается в параллельной реальности, в Америке 1985 года. В этом мире супергерои стали частью повседневной жизни общества, а Часы Судного Дня, застыв в пяти минутах от полуночи, отсчитывают время до столкновения ведущих мировых
ldes                                     : Действие картины разворачивается в параллельной реальности, в Америке 1985 года. В этом мире супергерои стали частью повседневной жизни общества, а Часы Судного Дня, застыв в пяти минутах от полуночи, отсчитывают время до столкновения ведущих мировых держав. После убийства одного из своих прежних коллег Роршах — супергерой, никогда не снимающий маски, — полон решимости свершить суд Линча. Он начинает расследование заговора, призванного уничтожить или дискредитировать всех супергероев прошлого и настоящего. Он собирает своих соратников — отставной легион борцов с преступностью, но лишь один из них обладает подлинной силой. Постепенно Роршах осознает пугающий масштаб заговора, связанного с общим прошлым героев и сулящего катастрофические последствия в будущем. Они хранят наш покой, но кто охранит нас от Хранителей?
hdvd                                     : 1
stik                                     : 9
rtng                                     : 0
akID                                     : -1
cnID                                     : 308856387
xid                                      : Apple:vendor_id:2009-252641
iTunEXTC                                 : mpaa|R|400|
iTunMOVI                                 : <?xml version="1.0" encoding="UTF-8"?> / <!DOCTYPE plist PUBLIC "-//Apple//DTD PLIST 1.0//EN" "http://www.apple.com/DTDs/PropertyList-1.0.dtd"> / <plist version="1.0"> / <dict> /  <key>cast</key> /  <array> /   <dict> /    <key>name</key> /    <string>Патрик Уилсон</string> /   </dict> /   <dict> /    <key>name</key> /    <string>Мэттью Гуд</string> /   </dict> /   <dict> /    <key>name</key> /    <string>Малин Акерман</string> /   </dict> /   <dict> /    <key>name</key> /    <string>Джеки Эрл Хейли</string> /   </dict> /   <dict> /    <key>name</key> /    <string>Билли Крудап</string> /   </dict> /   <dict> /    <key>name</key> /    <string>Джеффри Дин Морган</string> /   </dict> /   <dict> /    <key>name</key> /    <string>Карла Гуджино</string> /   </dict> /   <dict> /    <key>name</key> /    <string>Мэтт Фрюэр</string> /   </dict> /   <dict> /    <key>name</key> /    <string>Стивен МакХэтти</string> /   </dict> /   <dict> /    <key>name</key> /    <string>Лаура Меннелл</string> /   </dict> /  </array> /  <key>directors</key> /  <array> /   <dict> /    <key>name</key> /    <string>Зак Снайдер</string> /   </dict> /  </array> /  <key>producers</key> /  <array> /   <dict> /    <key>name</key> /    <string>Лоуренс Гордон</string> /   </dict> /   <dict> /    <key>name</key> /    <string>Ллойд Левин</string> /   </dict> /   <dict> /    <key>name</key> /    <string>Дебора Снайдер</string> /   </dict> /  </array> /  <key>screenwriters</key> /  <array> /   <dict> /    <key>name</key> /    <string>Дэвид Хэйтер</string> /   </dict> /   <dict> /    <key>name</key> /    <string>Алекс Тсе</string> /   </dict> /   <dict> /    <key>name</key> /    <string>Дэйв Гиббонс</string> /   </dict> /  </array> /  <key>studio</key> /  <string> Warner Bros. Pictures, Paramount Pictures, Legendary Pictures, DC Comics, Lawrence Gordon Productions</string> / </dict> / </plist>

Видео #1
Идентификатор                            : 1
Формат                                   : AVC
Формат/Информация                        : Advanced Video Codec
Профиль формата                          : High@L3.1
Параметр CABAC формата                   : Нет
Параметр ReFrames формата                : 3 кадра
Идентификатор кодека                     : avc1
Идентификатор кодека/Информация          : Advanced Video Coding
Продолжительность                        : 2 ч. 42 м.
Битрейт                                  : 5000 Кбит/сек
Максимальный битрейт                     : 14,2 Мбит/сек
Ширина                                   : 1280 пикселей
Высота                                   : 532 пикселя
Соотношение сторон                       : 2,40:1
Режим частоты кадров                     : Постоянный
Частота кадров                           : 23,976 кадра/сек
Цветовое пространство                    : YUV
Субдискретизация насыщенности            : 4:2:0
Битовая глубина                          : 8 бит
Тип развёртки                            : Прогрессивная
Бит/(Пиксели*Кадры)                      : 0.306
Размер потока                            : 5,65 Гбайт (76%)
Библиотека кодирования                   : x264 core 128 r2216 198a7ea
Настройки программы                      : cabac=0 / ref=3 / deblock=1:-1:-1 / analyse=0x3:0x133 / me=umh / subme=9 / psy=1 / psy_rd=0.70:0.20 / mixed_ref=1 / me_range=32 / chroma_me=1 / trellis=2 / 8x8dct=1 / cqm=0 / deadzone=21,11 / fast_pskip=0 / chroma_qp_offset=-3 / threads=18 / lookahead_threads=3 / sliced_threads=0 / nr=0 / decimate=0 / interlaced=0 / bluray_compat=0 / constrained_intra=0 / bframes=3 / b_pyramid=0 / b_adapt=2 / b_bias=0 / direct=3 / weightb=0 / open_gop=0 / weightp=2 / keyint=250 / keyint_min=23 / scenecut=40 / intra_refresh=0 / rc_lookahead=60 / rc=2pass / mbtree=0 / bitrate=5000 / ratetol=1.0 / qcomp=0.65 / qpmin=0 / qpmax=69 / qpstep=4 / cplxblur=20.0 / qblur=0.5 / vbv_maxrate=9500 / vbv_bufsize=9500 / nal_hrd=none / ip_ratio=1.40 / pb_ratio=1.20 / aq=2:0.90
Язык                                     : English
Дата кодирования                         : UTC 2012-11-07 19:44:01
Дата пометки                             : UTC 2012-11-07 19:45:41
Коэффициенты матрицы                     : BT.709

Видео #2
Идентификатор                            : 8
Формат                                   : JPEG
Идентификатор кодека                     : jpeg
Продолжительность                        : 2 ч. 42 м.
Вид битрейта                             : Переменный
Битрейт                                  : 1126 бит/сек
Ширина                                   : 640 пикселей
Высота                                   : 266 пикселей
Соотношение сторон                       : 2,40:1
Режим частоты кадров                     : Переменный
Частота кадров                           : 0,004 кадр/сек
Минимальная частота кадров               : 0,002 кадр/сек
Максимальная частота кадров              : 0,017 кадр/сек
Цветовое пространство                    : YUV
Субдискретизация насыщенности            : 4:2:0
Битовая глубина                          : 8 бит
Метод сжатия                             : С потерями
Бит/(Пиксели*Кадры)                      : 1.654
Размер потока                            : 1,44 Мбайт (0%)
Язык                                     : English
Дата кодирования                         : UTC 2012-11-07 20:17:33
Дата пометки                             : UTC 2012-11-07 20:17:33

Аудио #1
Идентификатор                            : 2
Формат                                   : AAC
Формат/Информация                        : Advanced Audio Codec
Профиль формата                          : LC
Идентификатор кодека                     : 40
Продолжительность                        : 2 ч. 42 м.
Вид битрейта                             : Переменный
Битрейт                                  : 165 Кбит/сек
Максимальный битрейт                     : 287 Кбит/сек
Каналы                                   : 2 канала
Расположение каналов                     : Front: L R
Частота                                  : 44,1 КГц
Метод сжатия                             : С потерями
Размер потока                            : 191 Мбайт (2%)
Язык                                     : Russian
Дата кодирования                         : UTC 2012-11-07 20:00:31
Дата пометки                             : UTC 2012-11-07 20:00:54

Аудио #2
Идентификатор                            : 3
Формат                                   : AAC
Формат/Информация                        : Advanced Audio Codec
Профиль формата                          : LC
Идентификатор кодека                     : 40
Продолжительность                        : 2 ч. 42 м.
Вид битрейта                             : Переменный
Битрейт                                  : 163 Кбит/сек
Максимальный битрейт                     : 279 Кбит/сек
Каналы                                   : 2 канала
Расположение каналов                     : Front: L R
Частота                                  : 48,0 КГц
Метод сжатия                             : С потерями
Размер потока                            : 190 Мбайт (2%)
Язык                                     : English
Дата кодирования                         : UTC 2012-11-07 20:00:31
Дата пометки                             : UTC 2012-11-07 20:01:08

Аудио #3
Идентификатор                            : 4
Формат                                   : AC-3
Формат/Информация                        : Audio Coding 3
Расширение режима                        : CM (complete main)
Параметр Endianness формата              : Big
Идентификатор кодека                     : ac-3
Продолжительность                        : 2 ч. 42 м.
Вид битрейта                             : Постоянный
Битрейт                                  : 640 Кбит/сек
Каналы                                   : 6 каналов
Расположение каналов                     : Front: L C R, Side: L R, LFE
Частота                                  : 48,0 КГц
Битовая глубина                          : 16 бит
Метод сжатия                             : С потерями
Размер потока                            : 742 Мбайт (10%)
Язык                                     : Russian
Дата кодирования                         : UTC 2012-11-07 20:17:05
Дата пометки                             : UTC 2012-11-07 20:17:10

Аудио #4
Идентификатор                            : 5
Формат                                   : AC-3
Формат/Информация                        : Audio Coding 3
Расширение режима                        : CM (complete main)
Параметр Endianness формата              : Big
Идентификатор кодека                     : ac-3
Продолжительность                        : 2 ч. 42 м.
Вид битрейта                             : Постоянный
Битрейт                                  : 640 Кбит/сек
Каналы                                   : 6 каналов
Расположение каналов                     : Front: L C R, Side: L R, LFE
Частота                                  : 48,0 КГц
Битовая глубина                          : 16 бит
Метод сжатия                             : С потерями
Размер потока                            : 742 Мбайт (10%)
Язык                                     : English
Дата кодирования                         : UTC 2012-11-07 20:17:05
Дата пометки                             : UTC 2012-11-07 20:17:17

Текст #1
Идентификатор                            : 6
Формат                                   : Timed text
Режим смешивания                         : sbtl
Идентификатор кодека                     : tx3g
Продолжительность                        : 2 ч. 35 м.
Вид битрейта                             : Переменный
Битрейт                                  : 56 бит/сек
Размер потока                            : 63,8 Кбайт (0%)
Язык                                     : English
Дата кодирования                         : UTC 2012-11-07 20:17:05
Дата пометки                             : UTC 2012-11-07 20:17:17

Текст #2
Идентификатор                            : 7
Формат                                   : Apple text
Идентификатор кодека                     : text
Продолжительность                        : 2 ч. 42 м.
Вид битрейта                             : Переменный
Битрейт                                  : 1 бит/сек
Размер потока                            : 1023 байт (0%)
Язык                                     : English
Дата кодирования                         : UTC 2012-11-07 20:17:17
Дата пометки                             : UTC 2012-11-07 20:17:17

Текст #3
Идентификатор                            : 9
Формат                                   : Timed text
Режим смешивания                         : sbtl
Идентификатор кодека                     : tx3g
Продолжительность                        : 2 ч. 42 м.
Вид битрейта                             : Переменный
Битрейт                                  : 76 бит/сек
Размер потока                            : 90,2 Кбайт (0%)
Язык                                     : Russian
Дата кодирования                         : UTC 2012-11-08 10:59:15
Дата пометки                             : UTC 2012-11-08 10:59:15

Меню
00:00:00.000                             : Chapter 1
00:05:41.633                             : Chapter 2
00:11:16.134                             : Chapter 3
00:15:11.994                             : Chapter 4
00:17:36.013                             : Chapter 5
00:21:43.928                             : Chapter 6
00:24:33.847                             : Chapter 7
00:29:32.312                             : Chapter 8
00:33:59.204                             : Chapter 9
00:38:30.725                             : Chapter 10
00:41:58.599                             : Chapter 11
00:43:36.280                             : Chapter 12
00:46:59.358                             : Chapter 13
00:51:14.196                             : Chapter 14
00:53:22.533                             : Chapter 15
00:56:02.901                             : Chapter 16
00:59:17.220                             : Chapter 17
01:04:14.142                             : Chapter 18
01:06:04.085                             : Chapter 19
01:09:26.454                             : Chapter 20
01:11:05.052                             : Chapter 21
01:13:51.719                             : Chapter 22
01:15:31.402                             : Chapter 23
01:19:15.960                             : Chapter 24
01:23:47.856                             : Chapter 25
01:27:01.758                             : Chapter 26
01:32:05.145                             : Chapter 27
01:37:48.946                             : Chapter 28
01:41:09.814                             : Chapter 29
01:46:16.161                             : Chapter 30
01:49:19.428                             : Chapter 31
01:52:35.082                             : Chapter 32
01:56:57.761                             : Chapter 33
01:57:58.238                             : Chapter 34
02:02:40.228                             : Chapter 35
02:09:31.555                             : Chapter 36
02:12:14.260                             : Chapter 37
02:16:39.650                             : Chapter 38
02:20:02.477                             : Chapter 39
02:23:28.558                             : Chapter 40
02:26:38.873                             : Chapter 41
02:30:43.785                             : Chapter 42
02:35:22.563                             : Chapter 43

x264 [info]: frame I:2153 Avg QP:14.89 size: 94910 PSNR Mean Y:47.56 U:51.58 V:51.71 Avg:48.53 Global:47.89
x264 [info]: frame P:73886 Avg QP:17.37 size: 41209 PSNR Mean Y:46.06 U:49.77 V:50.02 Avg:46.97 Global:46.16
x264 [info]: frame B:157146 Avg QP:19.09 size: 17938 PSNR Mean Y:45.05 U:48.76 V:49.12 Avg:45.95 Global:45.10
x264 [info]: consecutive B-frames: 2.4% 11.0% 36.6% 49.9%
x264 [info]: mb I I16..4: 14.3% 58.5% 27.2%
x264 [info]: mb P I16..4: 3.7% 9.1% 3.1% P16..4: 39.1% 25.2% 10.5% 1.2% 0.3% skip: 7.7%
x264 [info]: mb B I16..4: 0.5% 1.8% 0.5% B16..8: 40.5% 15.0% 2.8% direct: 7.4% skip:31.5% L0:41.6% L1:44.9% BI:13.5%
x264 [info]: 8x8 transform intra:58.8% inter:42.0%
x264 [info]: direct mvs spatial:95.9% temporal:4.1%
x264 [info]: coded y,uvDC,uvAC intra: 74.4% 81.1% 65.3% inter: 35.4% 38.4% 20.1%
x264 [info]: i16 v,h,dc,p: 60% 12% 8% 20%
x264 [info]: i8 v,h,dc,ddl,ddr,vr,hd,vl,hu: 12% 7% 6% 11% 15% 14% 14% 11% 10%
x264 [info]: i4 v,h,dc,ddl,ddr,vr,hd,vl,hu: 21% 7% 6% 10% 15% 13% 11% 9% 7%
x264 [info]: i8c dc,h,v,p: 55% 16% 19% 11%
x264 [info]: Weighted P-Frames: Y:5.2% UV:2.8%
x264 [info]: ref P L0: 63.6% 8.7% 19.1% 8.4% 0.2%
x264 [info]: ref B L0: 75.3% 24.7%
x264 [info]: SSIM Mean Y:0.9789001 (16.757db)
x264 [info]: PSNR Mean Y:45.392 U:49.106 V:49.432 Avg:46.297 Global:45.430 kb/s:4991.26
Скриншоты HD 720p


Тэги и обложка


Sort Name: Watchmen
XID: Apple:vendor_id:2009-252641
contentID: 308856387
Copyright: © Warner Bros. Pictures, Paramount Pictures
Screenwriters: Дэвид Хэйтер, Алекс Тсе, Дэйв Гиббонс
Producers: Лоуренс Гордон, Ллойд Левин, Дебора Снайдер
Director: Зак Снайдер
Cast: Патрик Уилсон, Мэттью Гуд, Малин Акерман, Джеки Эрл Хейли, Билли Крудап, Джеффри Дин Морган, Карла Гуджино, Мэтт Фрюэр, Стивен МакХэтти, Лаура Меннелл
Studio: Warner Bros. Pictures, Paramount Pictures, Legendary Pictures, DC Comics, Lawrence Gordon Productions
Rating: 5
Long Description: Действие картины разворачивается в параллельной реальности, в Америке 1985 года. В этом мире супергерои стали частью повседневной жизни общества, а Часы Судного Дня, застыв в пяти минутах от полуночи, отсчитывают время до столкновения ведущих мировых держав. После убийства одного из своих прежних коллег Роршах — супергерой, никогда не снимающий маски, — полон решимости свершить суд Линча. Он начинает расследование заговора, призванного уничтожить или дискредитировать всех супергероев прошлого и настоящего. Он собирает своих соратников — отставной легион борцов с преступностью, но лишь один из них обладает подлинной силой. Постепенно Роршах осознает пугающий масштаб заговора, связанного с общим прошлым героев и сулящего катастрофические последствия в будущем. Они хранят наш покой, но кто охранит нас от Хранителей?
Description: Действие картины разворачивается в параллельной реальности, в Америке 1985 года. В этом мире супергерои стали частью повседневной жизни общества, а Часы Судного Дня, застыв в пяти минутах от полуночи, отсчитывают время до столкновения ведущих мировых
Release Date: 2009-03-06T08:00:00Z
Genre: Action & Adventure
Comments: «Правосудие настигнет каждого из нас. Не важно за что.»
Artist: Zack Snyder
Name: Хранители

Исходник

Blu-ray Disc

Disc Title: WATCHMEN_D1_EL
Disc Size: 46 536 221 649 bytes
Protection: AACS
BD-Java: Yes
BDInfo: 0.5.8

PLAYLIST REPORT:

Name: 00003.MPLS
Length: 2:42:05.757 (h:m:s.ms)
Size: 46 087 335 936 bytes
Total Bitrate: 37,91 Mbps

VIDEO:

Codec Bitrate Description
----- ------- -----------
MPEG-4 AVC Video 27018 kbps 1080p / 23,976 fps / 16:9 / High Profile 4.1

AUDIO:

Codec Language Bitrate Description
----- -------- ------- -----------
Dolby TrueHD Audio English 3513 kbps 5.1 / 48 kHz / 3513 kbps / 24-bit (AC3 Embedded: 5.1 / 48 kHz / 640 kbps / DN -4dB)
Dolby Digital Audio Czech 640 kbps 5.1 / 48 kHz / 640 kbps / DN -4dB
Dolby Digital Audio Hungarian 640 kbps 5.1 / 48 kHz / 640 kbps / DN -4dB
Dolby Digital Audio Polish 640 kbps 5.1 / 48 kHz / 640 kbps / DN -4dB
Dolby Digital Audio Russian 640 kbps 5.1 / 48 kHz / 640 kbps / DN -4dB
Dolby Digital Audio Turkish 640 kbps 5.1 / 48 kHz / 640 kbps / DN -4dB

SUBTITLES:

Codec Language Bitrate Description
----- -------- ------- -----------
Presentation Graphics Czech 26,009 kbps
Presentation Graphics Greek 29,690 kbps
Presentation Graphics Estonian 28,697 kbps
Presentation Graphics English 31,345 kbps
Presentation Graphics Icelandic 30,239 kbps
Presentation Graphics Latvian 26,931 kbps
Presentation Graphics Hungarian 29,053 kbps
Presentation Graphics Polish 31,003 kbps
Presentation Graphics Portuguese 32,108 kbps
Presentation Graphics Russian 33,577 kbps
Presentation Graphics Romanian 30,348 kbps
Presentation Graphics Slovak 30,362 kbps
Presentation Graphics Slovenian 25,135 kbps
Presentation Graphics Turkish 30,561 kbps
Presentation Graphics Ukrainian 32,598 kbps
Presentation Graphics Czech 0,239 kbps
Presentation Graphics Hungarian 0,253 kbps
Presentation Graphics Polish 0,138 kbps
Presentation Graphics Russian 0,439 kbps
Presentation Graphics Turkish 0,082 kbps
Presentation Graphics Bulgarian 29,349 kbps
Presentation Graphics Serbian 28,809 kbps
Presentation Graphics Hebrew 21,133 kbps
Presentation Graphics Croatian 28,137 kbps
Presentation Graphics Lithuanian 28,565 kbps
************************************************************************
Disc Title: WATCHMEN_D2_EL
Disc Size: 22 292 471 094 bytes
Protection: AACS
BD-Java: Yes
BDInfo: 0.5.8

PLAYLIST REPORT:

Name: 00011.MPLS
Length: 0:28:48.560 (h:m:s.ms)
Size: 6 029 303 808 bytes
Total Bitrate: 27,90 Mbps

VIDEO:

Codec Bitrate Description
----- ------- -----------
MPEG-4 AVC Video 25046 kbps 1080p / 23,976 fps / 16:9 / High Profile 4.1

AUDIO:

Codec Language Bitrate Description
----- -------- ------- -----------
Dolby Digital Audio English 224 kbps 2.0 / 48 kHz / 224 kbps / DN -4dB

SUBTITLES:

Codec Language Bitrate Description
----- -------- ------- -----------
Presentation Graphics Bulgarian 69,483 kbps
Presentation Graphics Greek 70,989 kbps
Presentation Graphics Czech 63,558 kbps
Presentation Graphics Estonian 67,509 kbps
Presentation Graphics English 70,652 kbps
Presentation Graphics Hebrew 44,971 kbps
Presentation Graphics Croatian 65,340 kbps
Presentation Graphics Icelandic 69,306 kbps
Presentation Graphics Latvian 66,373 kbps
Presentation Graphics Lithuanian 66,952 kbps
Presentation Graphics Hungarian 67,733 kbps
Presentation Graphics Polish 69,452 kbps
Presentation Graphics Portuguese 68,034 kbps
Presentation Graphics Russian 73,117 kbps
Presentation Graphics Romanian 62,428 kbps
Presentation Graphics Slovenian 61,501 kbps
Presentation Graphics Slovak 68,062 kbps
Presentation Graphics Serbian 63,110 kbps
Presentation Graphics Turkish 71,473 kbps
Presentation Graphics Ukrainian 74,853 kbps
Релиз от: Релиз группа: [b]



Релиз подготовлен для просмотра на Apple TV, iPad.
Для просмотра данного релиза на компьютере с ОС Windows рекомендуется использовать VLC media player.
[NNM-Club.ru]_Watchmen HD (720 1080).torrent
 Торрент: Платиновая раздача  Зарегистрирован
 
Скачать


 Зарегистрирован:   24 Янв 2013 00:07:43
 Размер:   21,7 GB  (
 Рейтинг:   4,9 (Голосов: 24)
 Поблагодарили:   90
 Проверка:   Оформление проверено модератором 24 Янв 2013 09:13:49
Как cкачать  ·  Как раздать  ·  Правильно оформить  ·  Поднять ратио!  

_________________
My make-up may be flaking, but my smile still stays on.
Показать сообщения:   
Начать новую тему   Ответить на тему    Торрент-трекер NNM-Club -> Аудио и Видео -> Зарубежное видео HD для устройств Apple Часовой пояс: GMT + 3
Страница 1 из 1