Классический форум-трекер
canvas not supported
Нас вместе: 4 077 909

Интерны (сериии 141-144, 148-164 из ...) (2013) WEBRip


Страницы:   1, 2, 3 ... 9, 10, 11  След. 
 
RSS
Начать новую тему   Ответить на тему    Торрент-трекер NNM-Club -> Отечественные сериалы -> Интерны
Автор Сообщение
svlesin ®
Модератор Документалистики/TV
RG Releasers
Релизер 25000+ Uploader 300+
 
Стаж: 9 лет 9 мес.
Сообщений: 33774
Ratio: 1738,763
Поблагодарили: 3249502
100%
russia.gif
Интерны (2013) WEBRip
Русское название: Интерны
Год выпуска: 2013
Производство: Россия, "Комеди Клаб Продакшн"
Жанр: Комедия

Режиссер: Максим Пежемский, Заур Болотаев, Милан Килибарда
Актеры: Иван Охлобыстин, Кристина Асмус, Илья Глинников, Александр Ильин мл., Дмитрий Шаракоис, Вадим Демчог, Светлана Камынина, Светлана Пермякова, Один Ланд Байрон

Описание фильма:
Жизнь обычной многопрофильной больницы - сплошная рутина. Ненормированный рабочий день, тяжелая, неблагодарная работа, а также инопланетяне, электрики, спивающийся венеролог, озабоченная медсестра, больной-эксгибиционист, ручная крыса, четыре интерна, которые все время расстраивают своего руководителя... Как Иван Охлобыстин в лице доктора Быкова справится со всей этой суетой?

Продолжительность: Каждая серия х 00:24:00
Качество видео: WEBRip

Видеокодек: DivX
Битрейт видео: 1592 kbps
Размер кадра: 720x400
Аудиокодек: MP3, 2 ch
Битрейт аудио: 128 kbps
Внимание! Раздача ведётся путём добавления новых серий; при каждом добавлении создётся новый торрент. Чтобы начать докачку новой серии, пользователям необходимо сделать следующее:
(1) остановить скачивание,
(2) удалить старый торрент у себя из клиента (старые серии удалять не надо),
(3) скачать новый торрент и запустить его у себя в клиенте вместо старого, при этом указать клиенту путь в старую папку куда и должно происходить скачивание новых серий.
Ваш клиент при этом должен произвести хеширование (проверку) старой папки (если не производит сам - помогите ему сделать это), и будет докачивать только те серии которых у вас ещё нет. Старые серии при этом не удаляются, а продолжают раздаваться!
Eсли вы уже удалили старые серии, то предотвратить повторную закачку старых серий можно, отжав галочку в соответсвующих местах при запуске нового торрента. По возможности, желательно не удалять старые серии как можно дольше чтобы релизёр не столько продолжал раздавать старые серии, а смог сконцентрироваться на новых
Формат : AVI
Формат/Информация : Audio Video Interleave
Размер файла : 301 Мбайт
Продолжительность : 24 м.
Общий поток : 1732 Кбит/сек
Программа кодирования : VirtualDubMod 1.5.10.2 (build 2542/release)
Библиотека кодирования : VirtualDubMod build 2542/release
Правообладатель : Shuriman

Видео
Идентификатор : 0
Формат : MPEG-4 Visual
Параметр BVOP формата : 1
Параметр QPel формата : Нет
Параметр GMC формата : Без точки перехода
Параметр матрицы формата : Default (H.263)
Режим смешивания : Сжатый битовый поток
Идентификатор кодека : DX50
Идентификатор кодека/Подсказка : DivX 5
Продолжительность : 24 м.
Битрейт : 1592 Кбит/сек
Ширина : 720 пикселей
Высота : 400 пикселей
Соотношение сторон : 16:9
Частота кадров : 30,000 кадров/сек
Цветовое пространство : YUV
Субдискретизация насыщенности : 4:2:0
Битовая глубина : 8 бит
Тип развёртки : Прогрессивная
Метод сжатия : С потерями
Бит/(Пиксели*Кадры) : 0.184
Размер потока : 276 Мбайт (92%)
Библиотека кодирования : DivX 6.8.5 (UTC 2009-08-20)

Аудио
Идентификатор : 1
Формат : MPEG Audio
Версия формата : Version 1
Профиль формата : Layer 3
Режим : Joint stereo
Расширение режима : MS Stereo
Идентификатор кодека : 55
Идентификатор кодека/Подсказка : MP3
Продолжительность : 24 м.
Вид битрейта : Постоянный
Битрейт : 128 Кбит/сек
Каналы : 2 канала
Частота : 48,0 КГц
Метод сжатия : С потерями
Задержка видео : 11 мс.
Размер потока : 22,2 Мбайт (7%)
Выравнивание : Разделение по промежуткам
Продолжительность промежутка : 33 мс. (1,00 видеокадр)
Время предзагрузки промежутка : 500 мс.
Скриншоты:




Интерны на NNM-Club

Время раздачи: 24/7. До первых 5 скачавших.
[NNM-Club.ru]_Internyi (2013)_WEBRip.torrent
 Торрент: Платиновая раздача  Зарегистрирован
 
Скачать


 Зарегистрирован:   27 Май 2013 23:39:07
 Размер:   5,79 GB  (
 Рейтинг:   4,7 (Голосов: 925)
 Поблагодарили:   3405
 Проверка:   Оформление проверено модератором 28 Май 2013 01:42:22
Как cкачать  ·  Как раздать  ·  Правильно оформить  ·  Поднять ратио!  

_________________
Уважаемые пользователи Клуба! От меня релизов больше не будет. Может быть, буду поддерживать «Обновляемые раздачи». Спасибо всем, кто благодарил меня и говорил/нажимал «Спасибо»!
goshas77
Стаж: 10 лет 4 мес.
Сообщений: 65
Ratio: 7,153
4.5%
новые серии? круто, сейчас глянем

Купитман просто красавчик оказался)
AlexiSSG
Uploader 100+
 
Стаж: 9 лет
Сообщений: 2924
Ratio: 136,61
Поблагодарили: 3626
100%
ussr.gif
Спс за оперативность
Ironstuff
Стаж: 10 лет 2 мес.
Сообщений: 222
Ratio: 3015,576
Поблагодарили: 2
100%
russia.gif
Поставьте пож. в названии текущие номера серий.
Daemon1964
Стаж: 9 лет 10 мес.
Сообщений: 186
Ratio: 48,268
Раздал: 12,71 TB
100%
Откуда: Севастополь
russia.gif
ДА ЛАДНО????!! УРАА!!
Natali012013
Стаж: 6 лет 8 мес.
Сообщений: 20
Ratio: 86,265
100%
Оперативненько!
lupusalbus
Стаж: 8 лет 9 мес.
Сообщений: 64
Ratio: 39,158
Раздал: 40,25 TB
9.6%
zaire.gif
скачал. посмотрел.
вот чесно, не знаю кому как, а мне однотипный и уже приевшийся юмор стал абсолютно не смешным :(
EvgenichKiev
Стаж: 9 лет 1 мес.
Сообщений: 379
Ratio: 10,542
Раздал: 24,75 TB
Поблагодарили: 208
100%
ukraine.gif
Абсолютно поддерживаю пост выше! Даже жена заметила (а она просто фанатеет от Охлобыстина), что пора завязывать с Интернами. Но за релиз большущее спасибо.
Ratmir_X
Стаж: 7 лет 9 мес.
Сообщений: 6
Ratio: 48,566
100%
Откуда: Moscow
russia.gif
да вроде как еще вставляет....можно продолжать
farseer_cv2
Стаж: 7 лет 1 мес.
Сообщений: 12
Ratio: 15,791
100%
Откуда: Северное полушарие Земли
Скачиваю. Буду на раздаче!
Soloanna
Стаж: 9 лет 5 мес.
Сообщений: 24
Ratio: 0,938
100%
usa.gif
Спасибо огромное!
Отличное качество рипа, очень ждали новых серий, жаль, что дальше только по одной в неделю будет.
SmartCAD
Стаж: 7 лет 8 мес.
Сообщений: 101
Ratio: 5,342
Раздал: 2,322 TB
100%
Откуда: Крым
СУПЕР! Спасибо!!!!!!
ost_sul
Стаж: 10 лет 5 мес.
Сообщений: 69
Ratio: 27,265
100%
Откуда: Донецк
ukraine.gif
Попытался посмотреть эти серии на сайте ТНТ, пишет "Это видео не доступно для вашего региона" :шок: Вот уроды. Релизёру спасибо.
Шар
Стаж: 8 лет 8 мес.
Сообщений: 52
Ratio: 6,026
Раздал: 18,06 TB
Поблагодарили: 13
100%
Откуда: Брянск
russia.gif
Не смешно, как раньше!
m-r.Krot
Стаж: 8 лет 8 мес.
Сообщений: 29
Ratio: 600,536
100%
ussr.gif
Зря! Смешно, как и раньше! Кто знает когда выйдут новые серии? Раздающему Respect!
Показать сообщения:   
Начать новую тему   Ответить на тему    Торрент-трекер NNM-Club -> Отечественные сериалы -> Интерны Часовой пояс: GMT + 3
Страницы:   1, 2, 3 ... 9, 10, 11  След.
Страница 1 из 11