Классический форум-трекер
canvas not supported
Нас вместе: 4 095 216

Полярный экспресс / The Polar Express (2004) BDRip [1080p] [Вертикальная анаморфная стереопара 3D]


 
 
RSS
Начать новую тему   Ответить на тему    Торрент-трекер NNM-Club -> Мультфильмы -> Зарубежные Мультфильмы (3D)
Автор Сообщение
igor nisan ®
RG Всё лучшее - детям!
 
Стаж: 8 лет 4 мес.
Сообщений: 740
Ratio: 49,336
Поблагодарили: 98236
100%
ukraine.gif
Полярный экспресс / The Polar Express (2004) BDRip
Русское название: Полярный экспресс
Оригинальное название: The Polar Express
Год выпуска: 2004
Жанр: Мультфильм, Фэнтези, Приключения, Семейный

Описание:
Экранизация одноименной детской книги о необыкновенном путешествии маленького мальчика на волшебном поезде «Полярный экспресс» на Северный полюс к Санта-Клаусу в канун Рождества…

Режиссер: Роберт Земекис
Персонажи: Том Хэнкс, Майкл Джитер, Нона Гэй, Питер Сколари, Эдди Дизен, Лесли Хартер Земекис, Чарльз Флайшер, Джош Эли, Марк Мендонка, Роландас Хендрикс

Продолжительность: 01:40:06
Перевод: Дублированный

Видеокодек: MPEG-4 AVC/H.264
Битрейт видео: ~14,6 Мбит/сек
Размер кадра: 1920x1080
Качество видео: BDRip
Аудио №1: AC3 5.1 640 kbps - Русский
Аудио №2: AC3 5.1 640 kbps - Английский

Дата мировой премьеры: 21 октября 2004
Дата российской премьеры: 23 декабря 2004, «Каро-Премьер»
Дата выхода DVD релиза: 17 ноября 2009, «Юниверсал Пикчерс Рус»
Дата выхода BLU-RAY релиза: 17 ноября 2009, «Юниверсал Пикчерс Рус»



Общее
Уникальный идентификатор : 241851624894164859035741067095140940834 (0xB5F2EDBBE4145D77884D4651FA273C22)
Полное имя : H:\my films\Polar_Express_3D.mkv
Формат : Matroska
Версия формата : Version 4 / Version 2
Размер файла : 11,3 Гбайт
Продолжительность : 1 ч. 40 м.
Общий поток : 16,2 Мбит/сек
Название фильма : Polar_Express_3D_crop_over/under
Дата кодирования : UTC 2010-02-22 21:41:31
Программа кодирования : mkvmerge v5.9.0 ('On The Loose') built on Dec 9 2012 15:37:01
Библиотека кодирования : libebml v1.3.0 + libmatroska v1.4.0

Видео
Идентификатор : 1
Формат : AVC
Формат/Информация : Advanced Video Codec
Профиль формата : High@L4.1
Параметр CABAC формата : Да
Параметр ReFrames формата : 4 кадра
Параметр GOP формата : M=5, N=12
Режим смешивания : Header stripping
Идентификатор кодека : V_MPEG4/ISO/AVC
Продолжительность : 1 ч. 40 м.
Битрейт : 14,6 Мбит/сек
Ширина : 1920 пикселей
Высота : 1080 пикселей
Соотношение сторон : 16:9
Режим частоты кадров : Постоянный
Частота кадров : 23,976 кадра/сек
Цветовое пространство : YUV
Субдискретизация насыщенности : 4:2:0
Битовая глубина : 8 бит
Тип развёртки : Прогрессивная
Бит/(Пиксели*Кадры) : 0.293
Размер потока : 10,2 Гбайт (90%)
Заголовок : rip by I/N
Библиотека кодирования : x264 core 128 r2216M 198a7ea
Настройки программы : cabac=1 / ref=4 / deblock=1:-3:-3 / analyse=0x3:0x133 / me=umh / subme=7 / psy=1 / psy_rd=1.00:0.10 / mixed_ref=1 / me_range=32 / chroma_me=1 / trellis=2 / 8x8dct=1 / cqm=1 / deadzone=21,11 / fast_pskip=1 / chroma_qp_offset=-3 / threads=4 / lookahead_threads=1 / sliced_threads=0 / nr=0 / decimate=1 / interlaced=0 / bluray_compat=0 / constrained_intra=0 / bframes=4 / b_pyramid=2 / b_adapt=2 / b_bias=0 / direct=2 / weightb=1 / open_gop=0 / weightp=2 / keyint=12 / keyint_min=2 / scenecut=60 / intra_refresh=0 / rc_lookahead=17 / rc=crf / mbtree=1 / crf=16.0 / qcomp=0.60 / qpmin=10 / qpmax=60 / qpstep=6 / vbv_maxrate=40000 / vbv_bufsize=30000 / crf_max=30.0 / nal_hrd=none / ip_ratio=1.40 / aq=1:0.70
Default : Да
Forced : Нет

Аудио #1
Идентификатор : 2
Формат : AC-3
Формат/Информация : Audio Coding 3
Расширение режима : CM (complete main)
Параметр Endianness формата : Big
Режим смешивания : Header stripping
Идентификатор кодека : A_AC3
Продолжительность : 1 ч. 40 м.
Вид битрейта : Постоянный
Битрейт : 640 Кбит/сек
Каналы : 6 каналов
Расположение каналов : Front: L C R, Side: L R, LFE
Частота : 48,0 КГц
Битовая глубина : 16 бит
Метод сжатия : С потерями
Размер потока : 458 Мбайт (4%)
Язык : Russian
Default : Да
Forced : Нет

Аудио #2
Идентификатор : 3
Формат : AC-3
Формат/Информация : Audio Coding 3
Расширение режима : CM (complete main)
Параметр Endianness формата : Big
Режим смешивания : Header stripping
Идентификатор кодека : A_AC3
Продолжительность : 1 ч. 40 м.
Вид битрейта : Постоянный
Битрейт : 640 Кбит/сек
Каналы : 6 каналов
Расположение каналов : Front: L C R, Side: L R, LFE
Частота : 48,0 КГц
Битовая глубина : 16 бит
Метод сжатия : С потерями
Размер потока : 458 Мбайт (4%)
Язык : English
Default : Нет
Forced : Нет

Меню
00:00:00.000 : en:(01)00:00:00:000
00:05:07.473 : en:(02)00:05:07:473
00:09:46.919 : en:(03)00:09:46:919
00:15:16.415 : en:(04)00:15:16:415
00:18:19.765 : en:(05)00:18:19:765
00:23:08.220 : en:(06)00:23:08:220
00:28:07.519 : en:(07)00:28:07:519
00:33:43.688 : en:(08)00:33:43:688
00:35:25.289 : en:(09)00:35:25:289
00:41:37.328 : en:(10)00:41:37:328
00:44:45.015 : en:(11)00:44:45:015
00:47:06.156 : en:(12)00:47:06:156
00:49:18.622 : en:(13)00:49:18:622
00:53:25.869 : en:(14)00:53:25:869
00:57:18.435 : en:(15)00:57:18:435
01:01:08.998 : en:(16)01:01:08:998
01:05:55.785 : en:(17)01:05:55:785
01:09:55.191 : en:(18)01:09:55:191
01:12:56.205 : en:(19)01:12:56:205
01:16:28.250 : en:(20)01:16:28:250
01:19:37.939 : en:(21)01:19:37:939
01:21:51.406 : en:(22)01:21:51:406
01:27:10.058 : en:(23)01:27:10:058
01:31:21.142 : en:(24)01:31:21:142
01:40:06.625 : en:(25)01:40:06:625

Проверено на встроенном плейере ТВ Samsung-D6500
Скриншоты:


Справа и слева у видеоряда обрезано по 248р, что дает возможность просмотра на полный экран (без черных полос) на телевизорах с соотношением сторон 16:9 без изменения пропорций. На мой взгляд плюсы данных рипов- это более глубокое восприятие 3D-эффектов (конечно там где они есть) К минусам отнесу- вынужденное обрезание кадра по бокам. Так-что господа- выбор за вами! Всем приятного просмотра
Полярный экспресс на NNm-club
Время раздачи: 24/7 - круглосуточно до 15 скачавших
[NNM-Club.ru]_Polar_Express_3D.mkv.torrent
 Торрент: Платиновая раздача  Зарегистрирован
 
Скачать


Примагнититься
 Зарегистрирован:   24 Янв 2013 13:57:23
 Размер:   11,3 GB  (
 Рейтинг:   4,9 (Голосов: 34)
 Поблагодарили:   164
 Проверка:   Оформление проверено модератором 24 Янв 2013 20:32:50
Как cкачать  ·  Как раздать  ·  Правильно оформить  ·  Поднять ратио!  
douglare
Стаж: 1 год 7 мес.
Сообщений: 11
Ratio: 5,157
8.51%
Дайте скорости, пожалуйста!!! Очень надо!!!
Показать сообщения:   
Начать новую тему   Ответить на тему    Торрент-трекер NNM-Club -> Мультфильмы -> Зарубежные Мультфильмы (3D) Часовой пояс: GMT + 3
Страница 1 из 1