Классический форум-трекер
canvas not supported
Нас вместе: 4 078 889

Джунгли (2012) BDRip [1080p] [Вертикальная анаморфная стереопара 3D]


 
 
RSS
Начать новую тему   Ответить на тему    Торрент-трекер NNM-Club -> Отечественное кино -> Отечественные Фильмы (3D)
Автор Сообщение
igor nisan ®
RG Всё лучшее - детям!
 
Стаж: 8 лет
Сообщений: 740
Ratio: 50,891
Поблагодарили: 97977
100%
ukraine.gif
Джунгли (2012) BDRip

«Любовь - это война!»

Русское название: Джунгли
Год выпуска: 2012
Жанр: Мелодрама, Комедия, Приключения

Описание фильма:
У Сергея и Марины в семейной жизни наступил кризис. Во время одной из ссор, они решают поехать в экзотическое путешествие. Всю дорогу между супругами не утихают ссоры, которые в конце концов приводят к тому, что они оказываются на необитаемом острове, затерянном в океане. Вместо того чтобы вместе бороться за выживание, наши герои продолжают выяснять отношения, постепенно переходя к настоящим боевым действиям. В довершение несчастий оказывается, что остров населен племенем воинствующих туземцев.

Режиссер: Александр Войтинский
Актеры: Сергей Светлаков, Вера Брежнева, Александр Макогон, Александр Половцев, Марина Дюжева, Михаил Ефремов, Ирина Медведева, Ампорн Панкраток, Соонтри Кхумжулла, Сомсак Падуга

Продолжительность: 01:23:29

Дата мировой премьеры: 29 ноября 2012
Дата российской премьеры: 29 ноября 2012, «Наше Кино»
Дата выхода DVD релиза: 18 декабря 2012, «Lizard Cinema Trade»
Дата выхода BLU-RAY релиза: 29 января 2013, «Lizard Cinema Trade»



Видеокодек: MPEG-4 AVC/H.264
Битрейт видео: ~17,0 Мбит/сек
Размер кадра: 1920x1080
Качество видео: BDRip
Аудио №1: AC3 5.1 640 Кбит/сек - Русский
Аудио №2: DTS-HD MA / 5.1 / 48 kHz / 1561 kbps - Русский

Общее
Уникальный идентификатор : 232441194363845642213907456605649499536 (0xAEDE8BAFF1BB33C788D045A40D45F590)
Полное имя : H:\my films\JUNGLE_3D.mkv
Формат : Matroska
Версия формата : Version 4 / Version 2
Размер файла : 11,4 Гбайт
Продолжительность : 1 ч. 23 м.
Режим общего битрейта : Переменный
Общий поток : 19,6 Мбит/сек
Название фильма : JUNGLE_3D_crop_over/under
Дата кодирования : UTC 2010-02-22 21:41:31
Программа кодирования : mkvmerge v5.9.0 ('On The Loose') built on Dec 9 2012 15:37:01
Библиотека кодирования : libebml v1.3.0 + libmatroska v1.4.0

Видео
Идентификатор : 1
Формат : AVC
Формат/Информация : Advanced Video Codec
Профиль формата : High@L4.1
Параметр CABAC формата : Да
Параметр ReFrames формата : 4 кадра
Режим смешивания : Header stripping
Идентификатор кодека : V_MPEG4/ISO/AVC
Продолжительность : 1 ч. 23 м.
Битрейт : 17,0 Мбит/сек
Ширина : 1920 пикселей
Высота : 1080 пикселей
Соотношение сторон : 16:9
Режим частоты кадров : Постоянный
Частота кадров : 23,976 кадра/сек
Цветовое пространство : YUV
Субдискретизация насыщенности : 4:2:0
Битовая глубина : 8 бит
Тип развёртки : Прогрессивная
Бит/(Пиксели*Кадры) : 0.342
Размер потока : 9,93 Гбайт (87%)
Заголовок : rip by I/N
Библиотека кодирования : x264 core 128 r2216M 198a7ea
Настройки программы : cabac=1 / ref=4 / deblock=1:-3:-3 / analyse=0x3:0x133 / me=umh / subme=7 / psy=1 / psy_rd=1.00:0.10 / mixed_ref=1 / me_range=32 / chroma_me=1 / trellis=2 / 8x8dct=1 / cqm=1 / deadzone=21,11 / fast_pskip=1 / chroma_qp_offset=-3 / threads=4 / lookahead_threads=1 / sliced_threads=0 / nr=0 / decimate=1 / interlaced=0 / bluray_compat=0 / constrained_intra=0 / bframes=4 / b_pyramid=2 / b_adapt=2 / b_bias=0 / direct=2 / weightb=1 / open_gop=0 / weightp=2 / keyint=12 / keyint_min=2 / scenecut=60 / intra_refresh=0 / rc_lookahead=17 / rc=crf / mbtree=1 / crf=18.0 / qcomp=0.60 / qpmin=10 / qpmax=60 / qpstep=4 / vbv_maxrate=40000 / vbv_bufsize=30000 / crf_max=30.0 / nal_hrd=none / ip_ratio=1.40 / aq=1:0.70
Default : Да
Forced : Нет

Аудио #1
Идентификатор : 2
Формат : AC-3
Формат/Информация : Audio Coding 3
Расширение режима : CM (complete main)
Параметр Endianness формата : Big
Режим смешивания : Header stripping
Идентификатор кодека : A_AC3
Продолжительность : 1 ч. 23 м.
Вид битрейта : Постоянный
Битрейт : 640 Кбит/сек
Каналы : 6 каналов
Расположение каналов : Front: L C R, Side: L R, LFE
Частота : 48,0 КГц
Битовая глубина : 16 бит
Метод сжатия : С потерями
Размер потока : 382 Мбайт (3%)
Язык : Russian
Default : Да
Forced : Нет

Аудио #2
Идентификатор : 3
Формат : DTS
Формат/Информация : Digital Theater Systems
Профиль формата : MA / Core
Режим смешивания : Header stripping
Идентификатор кодека : A_DTS
Продолжительность : 1 ч. 23 м.
Вид битрейта : Переменный
Битрейт : 1561 Кбит/сек / 1510 Кбит/сек
Каналы : 6 каналов
Расположение каналов : Front: L C R, Side: L R, LFE
Частота : 48,0 КГц
Битовая глубина : 16 бит
Метод сжатия : Без потерь / Lossy
Язык : Russian
Default : Нет
Forced : Нет

Меню
00:00:00.000 : en:(01)00:00:00:000
00:04:00.782 : en:(02)00:04:00:782
00:07:56.309 : en:(03)00:07:56:309
00:14:02.049 : en:(04)00:14:02:049
00:17:18.328 : en:(05)00:17:18:328
00:21:46.972 : en:(06)00:21:46:972
00:27:42.452 : en:(07)00:27:42:452
00:34:58.805 : en:(08)00:34:58:805
00:40:15.621 : en:(09)00:40:15:621
00:46:24.281 : en:(10)00:46:24:281
00:51:48.063 : en:(11)00:51:48:063
00:56:29.094 : en:(12)00:56:29:094
01:00:58.029 : en:(13)01:00:58:029
01:07:08.107 : en:(14)01:07:08:107
01:13:54.138 : en:(15)01:13:54:138
01:18:50.225 : en:(16)01:18:50:225
01:23:30.046 : en:(17)01:23:30:046
Проверено на встроенном плейере ТВ Samsung-D6500
Скриншоты:

Справа и слева у видеоряда обрезано по 248р, что дает возможность просмотра на полный экран (без черных полос) на телевизорах с соотношением сторон 16:9 без изменения пропорций. На мой взгляд плюсы данных рипов- это более глубокое восприятие 3D-эффектов (конечно там где они есть) К минусам отнесу- вынужденное обрезание кадра по бокам. Так-что господа- выбор за вами! Всем приятного просмотра!
Джунгли на NNm-club

Время раздачи: 24/7 - круглосуточно до 15 скачавших
[NNM-Club.ru]_JUNGLE_3D.mkv.torrent
 Торрент: Платиновая раздача  Зарегистрирован
 
Скачать


 Зарегистрирован:   27 Янв 2013 22:09:38
 Размер:   11,4 GB  (
 Рейтинг:   4,3 (Голосов: 83)
 Поблагодарили:   408
 Проверка:   Оформление проверено модератором 29 Янв 2013 23:44:02
Как cкачать  ·  Как раздать  ·  Правильно оформить  ·  Поднять ратио!  
Загрузка...
AlVlaT
Стаж: 12 лет 4 мес.
Сообщений: 5
Ratio: 39,514
0%
russia.gif
Какие отличия от Джунгли 3D (2012) [1080p] BDRip [Вертикальная анаморфная стереопара]
igor nisan ®
RG Всё лучшее - детям!
 
Стаж: 8 лет
Сообщений: 740
Ratio: 50,891
Поблагодарили: 97977
100%
ukraine.gif
AlVlaT писал(а): Перейти к сообщению

Посмотрите внимательно (хотя-бы на скрины), почитайте - Особенности релиза, скачайте сэмпл и всё поймёте.
nubiles14
Стаж: 6 лет 9 мес.
Сообщений: 1
Ratio: 0
0%
Дайте Скорости плиз !!!!
palasateg
Стаж: 7 лет 10 мес.
Сообщений: 39
Ratio: 2,556
100%
Откуда: Moscow
russia.gif
Раздающему спасибо за релиз!

Собственно по сабжу.
Кино удивительно слабое даже с поправкой на Светлакова и Брежневу - это раз.
Колористы-дальтоники со сдвигом в псевдо-тёплую желтизну достают в нашем кинопроизводстве не первый уже, к сожалению, год - это два.
Фильм смотрится в лучшем случае как 2,5D, причём не Full HD, он просто удивительно замыленный и плоский по сравнению с любым виденным мною до сих пор - это три. Причина, скорее всего - очевидные (на мой взгляд) фатальные косяки операторов.
Не знаю, может из-за рипа такое впечатление сложилось... Но вряд ли.
Наше 3D-киноискусство по-прежнему в большом долгу, как говорится.

Смотрел на Samsung 6307 40".
Ещё раз спасибо раздающему. Хоть в кино теперь не надо на такой трэш ходить. Посмотрел и стёр.
vasuta
Стаж: 9 лет 5 мес.
Сообщений: 125
Ratio: 39,406
Поблагодарили: 1977
100%
russia.gif
фильм Джунгли кто переводил туземцев П.Санаев или А.Кашкин ?
kazim4ik
Стаж: 6 лет 10 мес.
Сообщений: 2
Ratio: 5,437
17.5%
гуд гляну
mi132
Стаж: 8 лет 9 мес.
Сообщений: 41
Ratio: 0,932
Поблагодарили: 298
0.63%
Откуда: stavropol
russia.gif
LG не воспроизводит неправельный формат файла.
psyDARKpsy
Стаж: 8 лет 5 мес.
Сообщений: 20
Ratio: 8,93
100%
russia.gif
Смотреть поздним вечером после тяжелого рабочего дня современную российскую комедию, — это испытание не для слабых духом. Но увиденное заставило меня изменить свое мнение, потому что реально отдохнул душой и телом. Все очень легко, забавно, мило и ненавязчиво. Здесь нет эдакого пошлого юморка, толп известных актеров в эпизодических ролях и прочей ерунды.

Здесь только интересная история о двух людях, которые любят друг друга, но чьи приоритеты сбились в процессе совместной жизни. И они не смотря ни на что бросают работу и уезжают на экзотические острова, чтобы отдохнуть и наладить отношения. Но на острове работа никак не хочет отпускать героя Светлакова, а его вторая половина в лице Веры Брежневой выходит на тропу войны.

_________________
Показать сообщения:   
Начать новую тему   Ответить на тему    Торрент-трекер NNM-Club -> Отечественное кино -> Отечественные Фильмы (3D) Часовой пояс: GMT + 3
Страница 1 из 1