Классический форум-трекер
canvas not supported
Нас вместе: 4 082 360

Детство Бемби / Юность Бемби (1985 - 1986) 2хDVD9


 
 
RSS
Начать новую тему   Ответить на тему    Торрент-трекер NNM-Club -> Видео -> Отечественные Фильмы для детей
Автор Сообщение
almikl ®
Куратор Детского.
Модератор Видео.
RG Всё лучшее - детям!
Uploader 500+
 
Стаж: 12 лет 5 мес.
Сообщений: 4775
Ratio: 345,678
Поблагодарили: 108277
100%
Откуда: Дааалекое Подмосковье
russia.gif
Детство Бемби (1985) DVD9
Русское название: Детство Бемби
Год выпуска: 1985
Жанр: Сказка, Детский, Семейный

Описание:
В лесу праздник, родился оленёнок Бемби, сын вожака, принц, наследник короны. Бемби ещё маленький и весь огромный мир вокруг него предстает как волшебная сказка. В этой сказке он встречает множество чудес: зверей и деревья, солнце и речку, своих двоюродных брата и сестру, белочку, веселых зайцев и прекрасных лебедей. Но в любой, даже самой прекрасной, сказке есть место непонятному и страшному. Так в сказочном лесу, где все живут дружно, есть Он. Тот, чье имя не называют. Кого боятся все, даже самые сильные звери...

Режиссер: Наталья Бондарчук
Актеры: Николай Бурляев, Марис Лиепа, Галина Беляева, Наталья Бондарчук, Галина Артёмова, Алексей Малыхин, Ольга Кабо, Лев Дуров, Инна Макарова, Дмитрий Золотухин, Айварс Лейманис, Гедиминас Таранта, Илзе Лиепа, Александр Сомов, Платон Сакварелидзе

Продолжительность: 01:16:27



Видеокодек: MPEG-2
Битрейт видео: ~7000 Кбит/сек
Размер кадра: 720 х 576
Качество видео: DVD9
Аудиокодек:
1# Russian (Dolby AC3, 6 ch) 448 Кбит/сек
2# Russian (Dolby AC3, 2 ch) 192 Кбит/сек
3# Francais (Dolby AC3, 6 ch) 448 Кбит/сек
Title:
Size: 7.76 Gb ( 8 138 700 KBytes ) - DVD-9
Enabled regions: 1, 2, 3, 4, 5, 6, 7, 8

VTS_01 :
Play Length: 00:00:27
Video: PAL 4:3 (720x576) VBR

VTS_02 :
Play Length: 00:00:22
Video: PAL 4:3 (720x576) VBR
Audio:
Not specified (Dolby AC3, 6 ch)

VTS_03 :
Play Length: 01:16:27
Video: PAL 4:3 (720x576) VBR
Audio:
Russian (Dolby AC3, 6 ch)
Russian (Dolby AC3, 2 ch)
Francais (Dolby AC3, 6 ch)
Subtitles:
English
Russian

VTS_04 :
Play Length: 00:28:38
Video: PAL 4:3 (720x576) VBR
Audio:
Russian (Dolby AC3, 2 ch)
Subtitles:
English
Russian

VTS_05 :
Play Length: 00:08:04
Video: PAL 4:3 (720x576) VBR
Audio:
Russian (Dolby AC3, 2 ch)
Subtitles:
English
Russian

VTS_06 :
Play Length: 00:09:50
Video: PAL 4:3 (720x576) VBR
Audio:
Russian (Dolby AC3, 2 ch)
Subtitles:
English
Russian

VTS_07 :
Play Length: 00:13:25
Video: PAL 4:3 (720x576) VBR
Audio:
Russian (Dolby AC3, 3 ch)
Subtitles:
English
Russian

VTS_08 :
Play Length: 00:01:02
Video: PAL 4:3 (720x576) VBR
Audio:
Not specified (Dolby AC3, 6 ch)

VTS_09 :
Play Length: 00:02:04
Video: PAL 4:3 (720x576) VBR
Audio:
Russian (Dolby AC3, 6 ch)
Subtitles:
English

VTS_10 :
Play Length: 00:01:23
Video: PAL 16:9 (720x576) VBR
Audio:
Russian (Dolby AC3, 6 ch)

VTS_11 :
Play Length: 00:02:03
Video: PAL 4:3 (720x576) VBR
Audio:
Russian (Dolby AC3, 6 ch)

VTS_12 :
Play Length: 00:02:01
Video: PAL 4:3 (720x576) VBR
Audio:
Russian (Dolby AC3, 6 ch)
Subtitles:
English
Russian

VTS_13 :
Play Length: 00:01:17
Video: PAL 4:3 (720x576) VBR
Audio:
Russian (Dolby AC3, 2 ch)
Общее
Полное имя : F:\DVD\Юность и Детство Бемби\Детство Бемби 1985 DVD9\VIDEO_TS\VTS_03_2.VOB
Формат : MPEG-PS
Размер файла : 1024 Мбайт
Продолжительность : 17 м.
Общий поток : 8238 Кбит/сек

Видео
Идентификатор : 224 (0xE0)
Формат : MPEG Video
Версия формата : Version 2
Профиль формата : Main@Main
Параметр BVOP формата : Да
Параметр матрицы формата : Выборочная
Параметр GOP формата : M=3, N=15
Продолжительность : 17 м.
Битрейт : 7000 Кбит/сек
Ширина : 720 пикселей
Высота : 576 пикселей
Соотношение сторон : 4:3
Частота кадров : 25,000 кадров/сек
Стандарт вещания : PAL
Цветовое пространство : YUV
Субдискретизация насыщенности : 4:2:0
Битовая глубина : 8 бит
Тип развёртки : Чересстрочная
Порядок развёртки : Нижнее поле первое
Метод сжатия : С потерями
Бит/(Пиксели*Кадры) : 0.675
Размер потока : 868 Мбайт (85%)

Аудио #1
Идентификатор : 189 (0xBD)-128 (0x80)
Формат : AC-3
Формат/Информация : Audio Coding 3
Расширение режима : CM (complete main)
Параметр Endianness формата : Big
Режим смешивания : DVD-Video
Продолжительность : 17 м.
Вид битрейта : Постоянный
Битрейт : 448 Кбит/сек
Каналы : 6 каналов
Расположение каналов : Front: L C R, Side: L R, LFE
Частота : 48,0 КГц
Битовая глубина : 16 бит
Метод сжатия : С потерями
Задержка видео : -672 мс.
Размер потока : 55,7 Мбайт (5%)

Аудио #2
Идентификатор : 189 (0xBD)-129 (0x81)
Формат : AC-3
Формат/Информация : Audio Coding 3
Расширение режима : CM (complete main)
Параметр Endianness формата : Big
Режим смешивания : DVD-Video
Продолжительность : 17 м.
Вид битрейта : Постоянный
Битрейт : 192 Кбит/сек
Каналы : 2 канала
Расположение каналов : Front: L R
Частота : 48,0 КГц
Битовая глубина : 16 бит
Метод сжатия : С потерями
Задержка видео : -576 мс.
Размер потока : 23,9 Мбайт (2%)

Аудио #3
Идентификатор : 189 (0xBD)-130 (0x82)
Формат : AC-3
Формат/Информация : Audio Coding 3
Расширение режима : CM (complete main)
Параметр Endianness формата : Big
Режим смешивания : DVD-Video
Продолжительность : 17 м.
Вид битрейта : Постоянный
Битрейт : 448 Кбит/сек
Каналы : 6 каналов
Расположение каналов : Front: L C R, Side: L R, LFE
Частота : 48,0 КГц
Битовая глубина : 16 бит
Метод сжатия : С потерями
Задержка видео : -672 мс.
Размер потока : 55,7 Мбайт (5%)

Текст #1
Идентификатор : 189 (0xBD)-32 (0x20)
Формат : RLE
Формат/Информация : Run-length encoding
Режим смешивания : DVD-Video
Продолжительность : 17 м.
Задержка видео : 440 мс.

Текст #2
Идентификатор : 189 (0xBD)-33 (0x21)
Формат : RLE
Формат/Информация : Run-length encoding
Режим смешивания : DVD-Video
Продолжительность : 17 м.
Задержка видео : 440 мс.

Меню
Бонусы: Интервью, Детский театр, Фильмографии, Фотоальбом, Смотрите на ДВД
Субтитры: русские, английские
Скриншоты:




Юность Бемби (1986) DVD9
Русское название: Юность Бемби
Год выпуска: 1986
Жанр: Сказка, Детский, Семейный

Описание:
Второй фильм дилогии, начатой лентой «Детство Бемби». Олененок Бемби, став взрослым прекрасным оленем, встречает олениху Фалину. Юная пара отправляется в далекое путешествие в поискax цветка жизни…

Режиссер: Наталья Бондарчук
Актеры: Николай Бурляев, Марис Лиепа, Галина Беляев, Наталья Бондарчук

Продолжительность: 01:05:22



Видеокодек: MPEG-2
Битрейт видео: ~7000 Кбит/сек
Размер кадра: 720 х 576
Качество видео: DVD9
Аудиокодек:
1# Russian (Dolby AC3, 6 ch) 448 Кбит/сек
2# Russian (Dolby AC3, 2 ch) 192 Кбит/сек
Title:
Size: 6.08 Gb ( 6 376 044 KBytes ) - DVD-9
Enabled regions: 1, 2, 3, 4, 5, 6, 7, 8

VTS_01 :
Play Length: 00:00:27
Video: PAL 4:3 (720x576) VBR

VTS_02 :
Play Length: 00:00:21
Video: PAL 4:3 (720x576) VBR
Audio:
Not specified (Dolby AC3, 6 ch)

VTS_03 :
Play Length: 01:05:22
Video: PAL 4:3 (720x576) VBR
Audio:
Russian (Dolby AC3, 6 ch)
Russian (Dolby AC3, 2 ch)
Subtitles:
English
Russian

VTS_04 :
Play Length: 00:07:00
Video: PAL 4:3 (720x576) VBR
Audio:
Russian (Dolby AC3, 3 ch)
Subtitles:
English
Russian

VTS_05 :
Play Length: 00:28:38
Video: PAL 4:3 (720x576) VBR
Audio:
Russian (Dolby AC3, 2 ch)
Subtitles:
English
Russian

VTS_06 :
Play Length: 00:02:23
Video: PAL 4:3 (720x576) VBR
Audio:
Russian (Dolby AC3, 3 ch)

VTS_07 :
Play Length: 00:01:24
Video: PAL 4:3 (720x576) VBR
Audio:
Russian (Dolby AC3, 6 ch)
Общее
Полное имя : F:\DVD\Юность и Детство Бемби\Юность Бемби 1986 DVD9\VIDEO_TS\VTS_03_1.VOB
Формат : MPEG-PS
Размер файла : 1024 Мбайт
Продолжительность : 16 м.
Общий поток : 8790 Кбит/сек

Видео
Идентификатор : 224 (0xE0)
Формат : MPEG Video
Версия формата : Version 2
Профиль формата : Main@Main
Параметр BVOP формата : Да
Параметр матрицы формата : Выборочная
Параметр GOP формата : M=3, N=15
Продолжительность : 16 м.
Битрейт : 8000 Кбит/сек
Ширина : 720 пикселей
Высота : 576 пикселей
Соотношение сторон : 4:3
Частота кадров : 25,000 кадров/сек
Стандарт вещания : PAL
Цветовое пространство : YUV
Субдискретизация насыщенности : 4:2:0
Битовая глубина : 8 бит
Тип развёртки : Чересстрочная
Порядок развёртки : Нижнее поле первое
Метод сжатия : С потерями
Бит/(Пиксели*Кадры) : 0.772
Размер потока : 929 Мбайт (91%)

Аудио #1
Идентификатор : 189 (0xBD)-128 (0x80)
Формат : AC-3
Формат/Информация : Audio Coding 3
Расширение режима : CM (complete main)
Параметр Endianness формата : Big
Режим смешивания : DVD-Video
Продолжительность : 16 м.
Вид битрейта : Постоянный
Битрейт : 448 Кбит/сек
Каналы : 6 каналов
Расположение каналов : Front: L C R, Side: L R, LFE
Частота : 48,0 КГц
Битовая глубина : 16 бит
Метод сжатия : С потерями
Размер потока : 52,2 Мбайт (5%)

Аудио #2
Идентификатор : 189 (0xBD)-129 (0x81)
Формат : AC-3
Формат/Информация : Audio Coding 3
Расширение режима : CM (complete main)
Параметр Endianness формата : Big
Режим смешивания : DVD-Video
Продолжительность : 16 м.
Вид битрейта : Постоянный
Битрейт : 192 Кбит/сек
Каналы : 2 канала
Расположение каналов : Front: L R
Частота : 48,0 КГц
Битовая глубина : 16 бит
Метод сжатия : С потерями
Размер потока : 22,4 Мбайт (2%)

Текст #1
Идентификатор : 189 (0xBD)-32 (0x20)
Формат : RLE
Формат/Информация : Run-length encoding
Режим смешивания : DVD-Video
Продолжительность : 16 м.
Задержка видео : 560 мс.

Текст #2
Идентификатор : 189 (0xBD)-33 (0x21)
Формат : RLE
Формат/Информация : Run-length encoding
Режим смешивания : DVD-Video
Продолжительность : 16 м.
Задержка видео : 560 мс.

Меню
Бонусы: Интервью, Детский театр, Фильмографии, Фотоальбом, Смотрите на ДВД
Субтитры: русские, английские
Скриншоты:




Время раздачи: 24/7, до 10 скачавших
Релиз-группа: by almikl ® &
Все релизы Детство Бемби / Юность Бемби на NNM-CLUB
[NNM-Club.me]_[NNM-Club.ru]_YUnost' i Detstvo Bembi.torrent
 Торрент: Платиновая раздача  Зарегистрирован
 
Скачать


Примагнититься
 Зарегистрирован:   06 Дек 2018 12:20:46
 Размер:   13,8 GB  (
 Рейтинг:   4,5 (Голосов: 28)
 Поблагодарили:   108
 Проверка:   Оформление проверено модератором 06 Дек 2018 12:22:55
Как cкачать  ·  Как раздать  ·  Правильно оформить  ·  Поднять ратио!  
almikl ®
Куратор Детского.
Модератор Видео.
RG Всё лучшее - детям!
Uploader 500+
 
Стаж: 12 лет 5 мес.
Сообщений: 4775
Ratio: 345,678
Поблагодарили: 108277
100%
Откуда: Дааалекое Подмосковье
russia.gif
Торрент обновлен, просьба перезакачать.
Включаем DHT в древних раздачах (Обновлено)
Показать сообщения:   
Начать новую тему   Ответить на тему    Торрент-трекер NNM-Club -> Видео -> Отечественные Фильмы для детей Часовой пояс: GMT + 3
Страница 1 из 1