Классический форум-трекер
canvas not supported
Нас вместе: 4 083 768
Платим за отзывы

Rihanna - Diamonds (2012) HDRemux [H.264/1080p-LQ]


 
 
RSS
Начать новую тему   Ответить на тему    Торрент-трекер NNM-Club -> Театр и Музыкальное видео -> Музыкальные клипы
Автор Сообщение
TigTig ®
Стаж: 8 лет 9 мес.
Сообщений: 194
Ratio: 403,276
Поблагодарили: 9303
100%
witch.png
Rihanna - Diamonds (2012) HDRemux [H.264/1080p-LQ]
Оригинальное название: Rihanna - Diamonds
Год выпуска: 2012
Жанр: R&B

Продолжительность: 00:04:42

Контейнер: m2ts
Видеокодек: AVC
Битрейт видео: ~5 585 Kbps
Размер кадра: 1920x1080p (16:9), 23.976 fps
Качество видео: HDRemux
Аудиокодек: PCM
Битрейт аудио: 48000Hz, PCM, 2ch stereo, 1 536 Kbps

Дополнительно:
Lossless Audio
General
ID : 0 (0x0)
Complete name : rihanna_diamonds_1080p.m2ts
Format : BDAV
Format/Info : Blu-ray Video
File size : 250 MiB
Duration : 4mn 42s
Overall bit rate mode : Variable
Overall bit rate : 7 424 Kbps
Maximum Overall bit rate : 48.0 Mbps

Video
ID : 4113 (0x1011)
Menu ID : 1 (0x1)
Format : AVC
Format/Info : Advanced Video Codec
Format profile : High@L4.0
Format settings, CABAC : Yes
Format settings, ReFrames : 2 frames
Format settings, GOP : M=2, N=12
Codec ID : 27
Duration : 4mn 42s
Bit rate mode : Variable
Bit rate : 5 585 Kbps
Maximum bit rate : 6 000 Kbps
Width : 1 920 pixels
Height : 1 080 pixels
Display aspect ratio : 16:9
Frame rate : 23.976 fps
Color space : YUV
Chroma subsampling : 4:2:0
Bit depth : 8 bits
Scan type : Progressive
Bits/(Pixel*Frame) : 0.112
Stream size : 188 MiB (75%)

Audio
ID : 4352 (0x1100)
Menu ID : 1 (0x1)
Format : PCM
Format settings, Endianness : Big
Format settings, Sign : Signed
Muxing mode : Blu-ray
Codec ID : 128
Duration : 4mn 42s
Bit rate mode : Constant
Bit rate : 1 536 Kbps
Channel(s) : 2 channels
Channel positions : Front: L R
Sampling rate : 48.0 KHz
Bit depth : 16 bits
Stream size : 51.8 MiB (21%)
Скриншоты:


Время раздачи: С 20:00 до 8:30
rihanna_diamonds_1080p_m2ts_[nnm-club.ru].torrent
 Торрент: Платиновая раздача  Зарегистрирован
 
Скачать


Примагнититься
 Зарегистрирован:   28 Янв 2013 19:19:51
 Размер:   250 MB  (
 Рейтинг:   4,7 (Голосов: 38)
 Поблагодарили:   104
 Проверка:   Оформление проверено модератором 29 Янв 2013 07:14:00
Как cкачать  ·  Как раздать  ·  Правильно оформить  ·  Поднять ратио!  
Loading...
Показать сообщения:   
Начать новую тему   Ответить на тему    Торрент-трекер NNM-Club -> Театр и Музыкальное видео -> Музыкальные клипы Часовой пояс: GMT + 3
Страница 1 из 1