Классический форум-трекер
canvas not supported
Нас вместе: 4 079 147

Львиное сердце / Singam (2010) BDRip


 
 
RSS
Начать новую тему   Ответить на тему    Торрент-трекер NNM-Club -> Зарубежное кино -> Индийское кино
Автор Сообщение
Jurchic ®
Стаж: 9 лет 1 мес.
Сообщений: 862
Ratio: 286,575
Поблагодарили: 70329
100%
Львиное сердце / Singam (2010) BDRip

Год выпуска: 2010
Страна: Индия | Reliance Big Pictures, Reliance Entertainment, Studio Green
Жанр: Боевик, Драма, Криминал

Описание фильма:
Жил да был Дурай Сингам в деревушке под названием Наллур. Был у него бравый помощник, который больше создавал проблем, чем решал. Разбирали они местечковые разборки, кто у кого украл козу, кто похитил навоз, и заканчивалось это настолько мирно, что не было в их участке заведено ни одного дела.

Однажды приехала в деревню к бабушке и дедушке внучка Кавья. После череды недоразумений она, само собой, влюбилась в доблестного Дурая, а он.. Но самое главное, злодей! Был в Ченнае противный такой злой разбойник Бармалей местного разлива… Майил Ваганам его звали. Людей похищал, угрожал, деньги вымогал. И вот его один раз прикрепили к участку Дурая отмечать документы о залоге…

Режиссер: Хари
Актеры: Сурья Шивакумар, Анушка, Пракаш Радж, Вивек, Бозе Венкат, Рада Рави, Манорама, Нассер, Виджаякумар, Адития...

Продолжительность: 02:34:04
Перевод: Многоголосый закадровый [RedMedia]



Дата мировой премьеры: 28 мая 2010

Видеокодек: Xvid
Битрейт видео: ~1118 Кбит/сек
Размер кадра: 720*304
Качество видео: BDRip
Аудиокодек: AC3 2.0
Битрейт аудио: 192 Кбит/сек
Код:
Общее
Полное имя                               : :\\Singam.2010.BDRip.avi
Формат                                   : AVI
Формат/Информация                        : Audio Video Interleave
Размер файла                             : 1,42 Гбайт
Продолжительность                        : 2 ч. 34 м.
Общий поток                              : 1319 Кбит/сек
Программа кодирования                    : VirtualDubMod 1.5.10.2 (build 2540/release)
Библиотека кодирования                   : VirtualDubMod build 2540/release

Видео
Идентификатор                            : 0
Формат                                   : MPEG-4 Visual
Профиль формата                          : Advanced Simple@L5
Параметр BVOP формата                    : 2
Параметр QPel формата                    : Нет
Параметр GMC формата                     : Без точки перехода
Параметр матрицы формата                 : Default (H.263)
Идентификатор кодека                     : XVID
Идентификатор кодека/Подсказка           : XviD
Продолжительность                        : 2 ч. 34 м.
Битрейт                                  : 1118 Кбит/сек
Ширина                                   : 720 пикселей
Высота                                   : 304 пикселя
Соотношение сторон                       : 2,35:1
Частота кадров                           : 24,000 кадра/сек
Цветовое пространство                    : YUV
Субдискретизация насыщенности            : 4:2:0
Битовая глубина                          : 8 бит
Тип развёртки                            : Прогрессивная
Метод сжатия                             : С потерями
Бит/(Пиксели*Кадры)                      : 0.213
Размер потока                            : 1,20 Гбайт (85%)
Библиотека кодирования                   : XviD 1.2.1 (UTC 2008-12-04)

Аудио
Идентификатор                            : 1
Формат                                   : AC-3
Формат/Информация                        : Audio Coding 3
Расширение режима                        : CM (complete main)
Параметр Endianness формата              : Big
Идентификатор кодека                     : 2000
Продолжительность                        : 2 ч. 34 м.
Вид битрейта                             : Постоянный
Битрейт                                  : 192 Кбит/сек
Каналы                                   : 2 канала
Расположение каналов                     : Front: L R
Частота                                  : 48,0 КГц
Битовая глубина                          : 16 бит
Метод сжатия                             : С потерями
Размер потока                            : 212 Мбайт (15%)
Выравнивание                             : Разделение по промежуткам
Продолжительность промежутка             : 42  мс. (1,00 видеокадр)
Время предзагрузки промежутка            : 500  мс.
Скриншоты:
[NNM-Club.ru]Singam.2010.BDRip.avi.torrent
 Торрент: Платиновая раздача  Зарегистрирован
 
Скачать


Примагнититься
 Зарегистрирован:   30 Янв 2013 10:36:02
 Размер:   1,42 GB  (
 Рейтинг:   4,2 (Голосов: 18)
 Поблагодарили:   84
 Проверка:   Оформление проверено модератором 30 Янв 2013 10:44:12
Как cкачать  ·  Как раздать  ·  Правильно оформить  ·  Поднять ратио!  
Загрузка...
Jurchic ®
Стаж: 9 лет 1 мес.
Сообщений: 862
Ratio: 286,575
Поблагодарили: 70329
100%
Я сказал-бы, что пытаются старые традиции Индийского Кино воплотить в современной "среде". Современные фильмы для "возрастного" своего зрителя!?
В общем: любителям Индийского кино, думаю, все-таки понравится и будут ждать продолжение (буду ждать и я):
- Singam 2

_________________
Если совет хорош, неважно, кто его дал.
ASix
Стаж: 9 лет
Сообщений: 23
Ratio: 6,89
0.55%
russia.gif
Хочу посмотреть только из-за того, что в +100500 видел как крут этот чувак с постера, бэтмен нервно курит в сторонке ))
aries_mc
Стаж: 9 лет 3 мес.
Сообщений: 252
Ratio: 4,327
11.29%
Откуда: Україна
ukraine.gif
Ребята - этот фильм , это просто . Я даже не знаю как описать.
Он реально кульный. Посмотреть стоит - ибо это реальная ржака.
Его серьезно конечно трудно воспринять - ибо когда тот индийский мент бросает палку ,
и потом машина об эту палку напаролась и перевернулась .
Матрица - отдыхает в сторонке и нервно курит.
---
Забираю и смотрю...
Релизеру - респект.

_________________
Если что не комильфо - то прошу пардону!
Серб
Стаж: 8 лет 3 мес.
Сообщений: 188
Ratio: 4,059
Раздал: 7,653 TB
100%
russia.gif
А меня прикалывает выражение лица этих индийских супергероев, такое комично-серьезное (как мистер Бин прям).
Jurchic ®
Стаж: 9 лет 1 мес.
Сообщений: 862
Ratio: 286,575
Поблагодарили: 70329
100%
Серб, aries_mc, ASix !!!!!
Я могу отнести ваши отзывы, как признание?! Вы же первые! Спасибо за Ваш интерес к этой стране, Извиняюсь.......... СТРАНЕ!!!!

_________________
Если совет хорош, неважно, кто его дал.
Jurchic ®
Стаж: 9 лет 1 мес.
Сообщений: 862
Ratio: 286,575
Поблагодарили: 70329
100%
Серб, aries_mc, ASix Вы!!!!!!! ЛУЧШИЕ

_________________
Если совет хорош, неважно, кто его дал.
VollBek
Uploader 100+
Стаж: 10 лет 5 мес.
Сообщений: 446
Ratio: 11K
Раздал: 424,6 TB
100%
Откуда: СССР
ussr.gif
Фильм 2011 года выпуска.
aries_mc
Стаж: 9 лет 3 мес.
Сообщений: 252
Ratio: 4,327
11.29%
Откуда: Україна
ukraine.gif
Jurchic писал(а): Перейти к сообщению
Серб, aries_mc, ASix !!!!!
Я могу отнести ваши отзывы, как признание?! Вы же первые! Спасибо за Ваш интерес к этой стране, Извиняюсь.......... СТРАНЕ!!!!


Конечно - как признание!
Этих фильмов так не хватает у нас в нашем кино.

Ибо немогу представить Дукалиса или Казанову или кто там еще
так ловко раздающим тумаков - бандитам,
и все это в пляске и с улыбкой .

В наших ментовских фильмах - одна чернуха и депресия.

А там.
Танцующий индийский мент - которого реально уважают жители,
потому как он не только ДЖИМИ - ДЖИМИ в танце ,
но и

АДЖА- АДЖА сделатть может бандитам. Да еще как. :-).

Я считаю что современное индийское кино - не утратила связь с еще тем индийским кино,
но стало современнее но от этого совсем не хуже.

Опять же так приятно, что добро обязательно победит.
И все будут счастливы и танцуют джими джими ача - ача .
Блин, уже нога и рука в ритме стала поддергиваться ...

Еще раз спасибо за релиз.

Отныне - ждемс новых шедевров.

_________________
Если что не комильфо - то прошу пардону!
navariya2011
Стаж: 9 лет 3 мес.
Сообщений: 5
Ratio: 13,097
0%
ukraine.gif
VollBek писал (а) :
Цитата:
Фильм 2011 года выпуска.

Лев / Сингам / Singham (2011) [720p] BDRip
Показать сообщения:   
Начать новую тему   Ответить на тему    Торрент-трекер NNM-Club -> Зарубежное кино -> Индийское кино Часовой пояс: GMT + 3
Страница 1 из 1