Классический форум-трекер
canvas not supported
Нас вместе: 4 079 391

Боги, наверное, сошли с ума / The Gods must be crasy (1980) DVDRip [H.264]


 
 
RSS
Начать новую тему   Ответить на тему    Торрент-трекер NNM-Club -> Классика кино и Старые фильмы до 90-х -> Старые Зарубежные Фильмы (HD*Rip/LQ, DVDRip, SATRip, VHSRip)
Автор Сообщение
Collabora​tionist​ ®
Стаж: 8 лет 2 мес.
Сообщений: 227
Ratio: 79,236
Поблагодарили: 16228
100%
Боги, наверное, сошли с ума / The Gods must be crasy (1980) DVDRip [H.264]
Страна: ЮАР, Ботсвана
Русское название: Боги, наверное, сошли с ума
Оригинальное название: The Gods must be crasy
Год выпуска: 1980
Жанр: Комедия

Описание фильма:
Режиссеру из Южной Африке Уису удалось в одном фильме органично совместить целых три сюжета. Один -- о бушмене, которому его племя поручило ответственную миссию избавления от опасного предмета, невесть как попавшей в их руки пустой бутылки из-под кока-колы (ее бросил с самолета лётчик). Другой -- о любовном романе между незадачливым растяпой-учителем и приехавшей в саванну исследовательницей. И, наконец, третий -- о группе террористов, улепетывающих после неудавшейся попытки военного путча. И все эти линии вдруг завязываются в один клубок. В общем, весело, неожиданно, оригинально, просто и гениально!

Режиссер: Джейми Уис /Jamie Uys

Актеры: Мэриус Уэйерс, Сандра Принсло, Никсау, Лоув Вервей, Майкл Тис, Ник Де Ягер

Продолжительность: 01:48:49
Перевод: Многоголосый закадровый, Двухголосный закадровый, Одноголосный закадровый



Качество: DVDRip
Формат: MKV
Видео: H264, 720х304, 2.35:1, 23.976 fps, 1500 kbps
Аудио 1: AC3 Dolby Digital, 2/0 (L,R) ch, ~192.00 kbps avg, Русский, Многоголосый закадровый
Аудио 2: AC3 Dolby Digital, 2/0 (L,R) ch, ~192.00 kbps avg, Русский, Двухголосный закадровый
Аудио 3: AC3 Dolby Digital, 2/0 (L,R) ch, ~192.00 kbps avg, Русский, Одноголосный закадровый (Володарский)
Аудио 4: AC3 Dolby Digital, 2/0 (L,R) ch, ~192.00 kbps avg, Русский, Одноголосный закадровый (Горчаков)
Аудио 5: AC3 Dolby Digital, 2/0 (L,R) ch, ~192.00 kbps avg, Русский, Одноголосный закадровый (Живов)
Аудио 6: AC3 Dolby Digital, 2/0 (L,R) ch, ~192.00 kbps avg, Original, English
Субтитры: Русские (2 вида), Английские
Меню: да

Сэмпл: Ссылка
General
Complete name : Боги, наверное, сошли с ума. The Gods must be crasy. 1980. (Ботсвана, ЮАР, отличная комедия). DVDRip-AVC.mkv
Format : Matroska
Format version : Version 4 / Version 2
File size : 2.02 GiB
Duration : 1h 48mn
Overall bit rate : 2 660 Kbps
Encoded date : UTC 2013-02-04 18:54:00
Writing application : mkvmerge v6.0.0 ('Coming Up For Air') built on Jan 20 2013 09:52:00
Writing library : libebml v1.3.0 + libmatroska v1.4.0

Video
ID : 1
Format : AVC
Format/Info : Advanced Video Codec
Format profile : Main@L3.0
Format settings, CABAC : Yes
Format settings, ReFrames : 2 frames
Codec ID : V_MPEG4/ISO/AVC
Duration : 1h 48mn
Bit rate : 1 500 Kbps
Width : 720 pixels
Height : 304 pixels
Display aspect ratio : 2.35:1
Frame rate mode : Constant
Frame rate : 29.970 fps
Color space : YUV
Chroma subsampling : 4:2:0
Bit depth : 8 bits
Scan type : Progressive
Bits/(Pixel*Frame) : 0.229
Stream size : 1.11 GiB (55%)
Title : Боги наверное сошли с ума. The Gods must be crasy. 1980. Ботсвана, ЮАР..DVDRip-AVC
Writing library : x264 core 88 r1471 1144615
Encoding settings : cabac=1 / ref=2 / deblock=1:0:0 / analyse=0x1:0x111 / me=hex / subme=6 / psy=1 / psy_rd=1.00:0.00 / mixed_ref=0 / me_range=16 / chroma_me=1 / trellis=0 / 8x8dct=0 / cqm=0 / deadzone=21,11 / fast_pskip=1 / chroma_qp_offset=-2 / threads=3 / sliced_threads=0 / nr=0 / decimate=1 / mbaff=0 / constrained_intra=0 / bframes=2 / b_pyramid=0 / b_adapt=1 / b_bias=0 / direct=1 / wpredb=0 / wpredp=2 / keyint=240 / keyint_min=24 / scenecut=40 / intra_refresh=0 / rc_lookahead=40 / rc=abr / mbtree=1 / bitrate=1500 / ratetol=1.0 / qcomp=0.60 / qpmin=10 / qpmax=51 / qpstep=4 / ip_ratio=1.40 / aq=1:1.00
Language : English
Default : Yes
Forced : No
Color primaries : BT.601 NTSC
Transfer characteristics : BT.709
Matrix coefficients : BT.601

Audio #1
ID : 2
Format : AC-3
Format/Info : Audio Coding 3
Mode extension : CM (complete main)
Format settings, Endianness : Big
Codec ID : A_AC3
Duration : 1h 48mn
Bit rate mode : Constant
Bit rate : 192 Kbps
Channel(s) : 2 channels
Channel positions : Front: L R
Sampling rate : 48.0 KHz
Bit depth : 16 bits
Compression mode : Lossy
Stream size : 149 MiB (7%)
Title : Профессиональный (многоголосый закадровый)
Language : Russian
Default : Yes
Forced : No

Audio #2
ID : 3
Format : AC-3
Format/Info : Audio Coding 3
Mode extension : CM (complete main)
Format settings, Endianness : Big
Codec ID : A_AC3
Duration : 1h 48mn
Bit rate mode : Constant
Bit rate : 192 Kbps
Channel(s) : 2 channels
Channel positions : Front: L R
Sampling rate : 48.0 KHz
Bit depth : 16 bits
Compression mode : Lossy
Stream size : 149 MiB (7%)
Title : Профессиональный (двухголосый закадровый)
Language : Russian
Default : No
Forced : No

Audio #3
ID : 4
Format : AC-3
Format/Info : Audio Coding 3
Mode extension : CM (complete main)
Format settings, Endianness : Big
Codec ID : A_AC3
Duration : 1h 48mn
Bit rate mode : Constant
Bit rate : 192 Kbps
Channel(s) : 2 channels
Channel positions : Front: L R
Sampling rate : 48.0 KHz
Bit depth : 16 bits
Compression mode : Lossy
Stream size : 149 MiB (7%)
Title : Авторский (одноголосый закадровый) (Володарский)
Language : Russian
Default : No
Forced : No

Audio #4
ID : 5
Format : AC-3
Format/Info : Audio Coding 3
Mode extension : CM (complete main)
Format settings, Endianness : Big
Codec ID : A_AC3
Duration : 1h 48mn
Bit rate mode : Constant
Bit rate : 192 Kbps
Channel(s) : 2 channels
Channel positions : Front: L R
Sampling rate : 48.0 KHz
Bit depth : 16 bits
Compression mode : Lossy
Stream size : 149 MiB (7%)
Title : Авторский (одноголосый закадровый) (Горчаков)
Language : Russian
Default : No
Forced : No

Audio #5
ID : 6
Format : AC-3
Format/Info : Audio Coding 3
Mode extension : CM (complete main)
Format settings, Endianness : Big
Codec ID : A_AC3
Duration : 1h 48mn
Bit rate mode : Constant
Bit rate : 192 Kbps
Channel(s) : 2 channels
Channel positions : Front: L R
Sampling rate : 48.0 KHz
Bit depth : 16 bits
Compression mode : Lossy
Stream size : 149 MiB (7%)
Title : Авторский (одноголосый закадровый) (Живов)
Language : Russian
Default : No
Forced : No

Audio #6
ID : 7
Format : AC-3
Format/Info : Audio Coding 3
Mode extension : CM (complete main)
Format settings, Endianness : Big
Codec ID : A_AC3
Duration : 1h 48mn
Bit rate mode : Constant
Bit rate : 192 Kbps
Channel(s) : 2 channels
Channel positions : Front: L R
Sampling rate : 48.0 KHz
Bit depth : 16 bits
Compression mode : Lossy
Stream size : 149 MiB (7%)
Title : Original
Language : English
Default : No
Forced : No

Text #1
ID : 8
Format : UTF-8
Codec ID : S_TEXT/UTF8
Codec ID/Info : UTF-8 Plain Text
Title : Русские
Language : Russian
Default : No
Forced : No

Text #2
ID : 9
Format : VobSub
Muxing mode : zlib
Codec ID : S_VOBSUB
Codec ID/Info : The same subtitle format used on DVDs
Title : Русские
Language : Russian
Default : No
Forced : No

Text #3
ID : 10
Format : UTF-8
Codec ID : S_TEXT/UTF8
Codec ID/Info : UTF-8 Plain Text
Title : Английские
Language : Russian
Default : No
Forced : No

Menu
00:00:00.000 : en:Chapter 1
00:08:14.494 : en:Chapter 2
00:09:45.751 : en:Chapter 3
00:16:02.795 : en:Chapter 4
00:18:45.324 : en:Chapter 5
00:21:25.484 : en:Chapter 6
00:26:05.730 : en:Chapter 7
00:38:48.492 : en:Chapter 8
00:43:18.262 : en:Chapter 9
00:46:32.790 : en:Chapter 10
00:52:59.176 : en:Chapter 11
00:55:27.490 : en:Chapter 12
00:57:15.098 : en:Chapter 13
00:59:08.545 : en:Chapter 14
01:00:52.148 : en:Chapter 15
01:03:47.323 : en:Chapter 16
01:04:24.861 : en:Chapter 17
01:06:32.822 : en:Chapter 18
01:07:56.105 : en:Chapter 19
01:09:50.352 : en:Chapter 20
01:12:28.844 : en:Chapter 21
01:16:59.114 : en:Chapter 22
01:32:42.256 : en:Chapter 23
01:36:07.428 : en:Chapter 24
01:38:58.098 : en:Chapter 25
01:42:24.638 : en:Chapter 26
01:45:01.962 : en:Chapter 27
01:47:04.918 : en:Chapter 28
Скриншоты:


Отличная комедия.
Рекомендую.
Боги, наверное, сошли с ума 2 / The Gods must be crasy 2 (1989) DVDRip [H.264]

Время раздачи: С 10:00 до 17:00 (мск)
[NNM-Club.ru]_Bogi, navernoe, soshli s uma. The Gods must be crasy. 1980. (Botsvana, YUAR, otlichnaya komediya). DVDRip-AVC.mkv.torrent
 Торрент: Платиновая раздача  Зарегистрирован
 
Скачать


Примагнититься
 Зарегистрирован:   05 Фев 2013 19:12:44
 Размер:   2,02 GB  (
 Рейтинг:   4,8 (Голосов: 161)
 Поблагодарили:   626
 Проверка:   Оформление проверено модератором 06 Фев 2013 14:01:59
Как cкачать  ·  Как раздать  ·  Правильно оформить  ·  Поднять ратио!  
alexei635
Стаж: 8 лет 4 мес.
Сообщений: 106
Ratio: 9,861
3.7%
Отличный фильм. Рекомендую!
Mengelle
Стаж: 7 лет 10 мес.
Сообщений: 26
Ratio: 3,997
100%
Ооооооо! Какой раритет!
Спасибо ! Смотреть всем!
Samson108
Стаж: 9 лет 2 мес.
Сообщений: 122
Ratio: 2,5
100%
ukraine.gif
Чуудный фильм-слааввный...!!
пуляGF
Стаж: 9 лет
Сообщений: 104
Ratio: 1,43
100%
Откуда: украина
ukraine.gif
сто раз видел и посмотрю еще раз :ура: :ура: :ура:
topar79
Стаж: 7 лет 10 мес.
Сообщений: 49
Ratio: 1,719
0%
уссачка
Алексей Борисович Струков
Стаж: 8 лет 1 мес.
Сообщений: 485
Ratio: 1,729
Поблагодарили: 1
24.29%
Откуда: Челябинск РСФСР,СССР,РФ
russia.gif
А ЭТО ПОЛНАЯ ВЕРСИЯ И ХОТЕЛОСЬ УЗНАТЬ В КАКОМ ФОРМАТЕ???
scoobedoo
Стаж: 8 лет 8 мес.
Сообщений: 112
Ratio: 1,214
12.67%
Откуда: Санкт-Петербург
russia.gif
Ничего смешного не увидел. Фильм - тоска зеленая и тупня. Юмор, как раз на уровне аборигенов - ускорить пленку, и все. Комедия готова.
Не писал бы даже комментариев к этому творению, но меня всегда возмущают рейтинги, которые ни как не соответствуют уровню кинокартины. К просмотру не рекомендую (разве что для детей не старше 8 лет.)
Odissey1030
Стаж: 9 лет 2 мес.
Сообщений: 114
Ratio: 70,584
Раздал: 457 GB
100%
Откуда: Молотов
ussr.gif
Скучновато. Режиссура - никакая. Кроме предполагаемой экзотики, искать нечего. Но и её Вы тут не найдёте почему-то.

Оценка - "так себе", т.е. 2 из 5.
forestrash
Стаж: 7 лет 5 мес.
Сообщений: 20
Ratio: 3,414
100%
слишком серьезно вы подходите к фильму 35 летней давности , господа критики.
хороший ,добрый , веселый по детски наивный фильм . годен к просмотру +4 по 5 бальной системе.
самое главное , можно смотреть всей семьёй.
weter
 
Стаж: 10 лет 6 мес.
Сообщений: 860
Ratio: 2,575
100%
Откуда: Ниоткуда
Хороший фильм. Не для взрослых)

_________________
The wind is paradise; let the wind blow. E. Daniel Richie.
Officer02111988
Стаж: 5 лет 3 мес.
Сообщений: 4
Ratio: 1,015
30.63%
russia.gif
Фильм хороший, молодёжь не поймёт к сожалению:(
JurgenOgrr
Стаж: 7 мес. 30 дней
Сообщений: 73
Ratio: 0,61
96.31%
sao_tome.gif
Фильм - пуля!!!
На все времена. Смотреть в переводе Иванова (как на кассетах "ЛазерВидео") обе части (1 и 2) Просто обалденно и лаконично.

"...Налево, а не Налееево..."
"...Хики говорил долго и искренне... пока бабуин не начал обращать на него внимание..." :смех: :смех: :лол: просто вдумайтесь !!! И так практически во всех диалогах )))
Показать сообщения:   
Начать новую тему   Ответить на тему    Торрент-трекер NNM-Club -> Классика кино и Старые фильмы до 90-х -> Старые Зарубежные Фильмы (HD*Rip/LQ, DVDRip, SATRip, VHSRip) Часовой пояс: GMT + 3
Страница 1 из 1