Классический форум-трекер
canvas not supported
Нас вместе: 4 093 701

Discovery: Искусство кино (Лаборатория спецэффектов). Трансформеры: живой Бамбли! / Science of the Movies. Transformers: Bumblebee Rises (2009) HDTVRip [Сезон 2: эпизод 5]


 
 
RSS
Начать новую тему   Ответить на тему    Торрент-трекер NNM-Club -> Зарубежные TV-бренды -> Discovery
Автор Сообщение
skorpionN ®
Ведущий Документалист
Стаж: 12 лет 7 мес.
Сообщений: 9514
Ratio: 2629,145
Раздал: 22,35 TB
Поблагодарили: 363809
100%
Discovery: Искусство кино (Лаборатория спецэффектов). Трансформеры: живой Бамбли! / Science of the Movies. Transformers: Bumblebee Rises (2009) HDTVRip [Сезон 2: эпизод 5]
Автор Rip'а: skorpionN

Русское название: Discovery: Искусство кино (Лаборатория спецэффектов). Трансформеры: живой Бамбли!
Оригинальное название: Science of the Movies. Transformers: Bumblebee Rises
Режиссер / Телекомпания: Discovery HD Showcase
Год выпуска: 2009
Жанр: Документальный

Описание:
Программа «Искусство кино» приглашает вас окунуться в невероятный мир технологии, скрытой за экраном кинотеатра. Энтузиаст и страстный любитель кино Нар Уильямс встречается с талантливыми специалистами, рассказывает о новаторской технологии и знакомит нас с невероятными методами, которые позволяют создавать захватывающие дух сцены в голливудских фильмах. Программа «Искусство кино» рассказывает о методах съемки и встречается с получившими престижные призы специалистами. Вы увидите самые последние камеры и то, как создается трехмерное изображение. «Искусство кино» — это редкие «кадры за кадром», совершенно по-новому рассказывающие о магии кино.

Продолжительность: 00:43:55

Перевод: Одноголосый закадровый, профессиональный

Видеокодек: Xvid
Битрейт видео: ~1800 kbps
Размер кадра: 720х400
Качество видео: HDTVRip
Аудиокодек: AC3, 6 ch.
Битрейт аудио: 192 kbps
Формат : AVI
Формат/Информация : Audio Video Interleave
Размер файла : 628 Мбайт
Продолжительность : 43 м.
Общий поток : 2001 Кбит/сек
Программа кодирования : VirtualDubMod 1.5.10.3 | www.virtualdub-fr.org || (build 2550/release)
Библиотека кодирования : VirtualDubMod build 2550/release

Видео
Идентификатор : 0
Формат : MPEG-4 Visual
Профиль формата : Advanced Simple@L5
Параметр BVOP формата : 2
Параметр QPel формата : Да
Параметр GMC формата : 3 точки перехода
Параметр матрицы формата : Default (H.263)
Идентификатор кодека : XVID
Идентификатор кодека/Подсказка : XviD
Продолжительность : 43 м.
Битрейт : 1799 Кбит/сек
Ширина : 720 пикс.
Высота : 400 пикс.
Соотношение сторон : 16:9
Частота кадров : 25,000 кадр/сек
Цветовое пространство : YUV
Подвыборка цветности : 4:2:0
Битовая глубина : 8 бит
Тип развёртки : Прогрессивная
Метод сжатия : С потерями
Бит/(Пиксели*Кадры) : 0.250
Размер потока : 565 Мбайт (90%)
Библиотека кодирования : XviD 1.2.1 (UTC 2008-12-04)

Аудио
Идентификатор : 1
Формат : AC-3
Формат/Информация : Audio Coding 3
Расширение режима : CM (complete main)
Идентификатор кодека : 2000
Продолжительность : 43 м.
Вид битрейта : Постоянный
Битрейт : 192 Кбит/сек
Канал(ы) : 6 канала(ов)
Расположение каналов : Front: L C R, Side: L R, LFE
Частота : 48,0 КГц
Битовая глубина : 16 бит
Метод сжатия : С потерями
Размер потока : 60,3 Мбайт (10%)
Выравнивание : Разделение по промежуткам
Продолжительность промежутка : 40 мс. (1,00 видеокадр)
Время предзагрузки промежутка : 500 ms
HDTVRip
Сезон 1:
01. Контроль за движением
02. Большая картинка: IMAX
03. Фильмы ужасов: страшные спецэффекты
05. Сцены погони: трехмерная магия
06. Магия Хенсона
Сезон 2:
01. Зомби: искусство бессмертия
02. Скорость: когда автобус идет на взлет!
04. Магический мир Джорджа Лукаса
05. Трансформеры: живой Бамбли!
07. Взрывоопасная наука
08. Да будет с тобой сила: студия Skywalker Sound

Искусство кино. Лаборатория спецэффектов.Трансформеры - живой Бамблби! / Science of the Movies (2011) SATRip
Искусство кино (сезон 1 серии 1-13) / Science of the Movies (2009) SATRip

Скриншоты:




Время раздачи: 24/7 ( до первых скачавших, перебои со связью бывают,зависит от провайдера)
[NNM-Club.ru]_11_Science_of_the_Movies_Transformers_Bumblebee_Rises.avi.torrent
 Торрент: Платиновая раздача  Зарегистрирован
 
Скачать


Примагнититься
 Зарегистрирован:   09 Фев 2013 10:07:48
 Размер:   628 MB  (
 Рейтинг:   4,5 (Голосов: 21)
 Поблагодарили:   72
 Проверка:   Оформление проверено модератором 09 Фев 2013 12:23:54
Как cкачать  ·  Как раздать  ·  Правильно оформить  ·  Поднять ратио!  
skorpionN ®
Ведущий Документалист
Стаж: 12 лет 7 мес.
Сообщений: 9514
Ratio: 2629,145
Раздал: 22,35 TB
Поблагодарили: 363809
100%
98 :пока:
Показать сообщения:   
Начать новую тему   Ответить на тему    Торрент-трекер NNM-Club -> Зарубежные TV-бренды -> Discovery Часовой пояс: GMT + 3
Страница 1 из 1