Классический форум-трекер
canvas not supported
Нас вместе: 4 114 091

The Beatles - A Hard Day's Night (Вечер трудного дня) (1988) [FLAC 2.0 192/24|traks(Vinil-Rip)]<Rock & Roll, Pop Rock>


 
 
RSS
Начать новую тему   Ответить на тему    Торрент-трекер NNM-Club -> Архив торрентов -> Архив Музыки
Автор Сообщение
tamtutnet ®
Стаж: 10 лет 4 мес.
Сообщений: 612
Ratio: 156,149
Поблагодарили: 23695
100%
Откуда: Санкт-Петербуг
russia.gif
The Beatles - A Hard Day's Night (Вечер трудного дня) (1988)
Год: 1988
Жанр: Rock & Roll, Pop Rock
Продолжительность: 00:27:55

Кодек: FLAC 2.0 192/24

Трек лист:
11. Вечер трудного дня
12. Мне стоило знать
13. Если я полюблю
14. Как счастлив я танцевать с тобой
15. Я люблю ее
16. Скажи мне, почему
17. Любовь не купишь
21. Когда угодно
22. Я буду рыдать
23. Слова, что сказаны сегодня
24. Не смей!
25. Я вернусь
Мелодия – С60 23579 008
Апрелевский ЗГ
Manufactured under license of EMI Records
Оцифровка собственная - два моно 192/32. Запись - Technics SL-D303, картридж AT15Sa, фонокорректор Pro-Ject Phono Box SE II, АЦП E-MU 0204, WaveLab5. Реставрация, мастеринг - Sound Forge 10, iZotope RX2
Код:

Общее
Полное имя                               : D:\Раздачи\Битлз\Вечер трудного дня\Вечер трудного дня\11. Вечер трудного дня.flac
Формат                                   : FLAC
Формат/Информация                        : Free Lossless Audio Codec
Размер файла                             : 92,3 Мбайт
Продолжительность                        : 2 м. 32 с.
Режим общего битрейта                    : Переменный
Общий поток                              : 5095 Кбит/сек

Аудио
Формат                                   : FLAC
Формат/Информация                        : Free Lossless Audio Codec
Продолжительность                        : 2 м. 32 с.
Вид битрейта                             : Переменный
Битрейт                                  : 5094 Кбит/сек
Каналы                                   : 2 канала
Частота                                  : 192 КГц
Битовая глубина                          : 24 бит
Размер потока                            : 92,3 Мбайт (100%)
Библиотека кодирования                   : libFLAC 20080709 (UTC 2008-07-09)

Общее
Полное имя                               : D:\Раздачи\Битлз\Вечер трудного дня\Вечер трудного дня\12. Мне стоило знать.flac
Формат                                   : FLAC
Формат/Информация                        : Free Lossless Audio Codec
Размер файла                             : 103 Мбайт
Продолжительность                        : 2 м. 43 с.
Режим общего битрейта                    : Переменный
Общий поток                              : 5298 Кбит/сек

Аудио
Формат                                   : FLAC
Формат/Информация                        : Free Lossless Audio Codec
Продолжительность                        : 2 м. 43 с.
Вид битрейта                             : Переменный
Битрейт                                  : 5297 Кбит/сек
Каналы                                   : 2 канала
Частота                                  : 192 КГц
Битовая глубина                          : 24 бит
Размер потока                            : 103 Мбайт (100%)
Библиотека кодирования                   : libFLAC 20080709 (UTC 2008-07-09)

Общее
Полное имя                               : D:\Раздачи\Битлз\Вечер трудного дня\Вечер трудного дня\13. Если я полюблю.flac
Формат                                   : FLAC
Формат/Информация                        : Free Lossless Audio Codec
Размер файла                             : 84,8 Мбайт
Продолжительность                        : 2 м. 18 с.
Режим общего битрейта                    : Переменный
Общий поток                              : 5153 Кбит/сек

Аудио
Формат                                   : FLAC
Формат/Информация                        : Free Lossless Audio Codec
Продолжительность                        : 2 м. 18 с.
Вид битрейта                             : Переменный
Битрейт                                  : 5152 Кбит/сек
Каналы                                   : 2 канала
Частота                                  : 192 КГц
Битовая глубина                          : 24 бит
Размер потока                            : 84,7 Мбайт (100%)
Библиотека кодирования                   : libFLAC 20080709 (UTC 2008-07-09)

Общее
Полное имя                               : D:\Раздачи\Битлз\Вечер трудного дня\Вечер трудного дня\14. Как счастлив я танцевать с тобой.flac
Формат                                   : FLAC
Формат/Информация                        : Free Lossless Audio Codec
Размер файла                             : 66,4 Мбайт
Продолжительность                        : 1 м. 55 с.
Режим общего битрейта                    : Переменный
Общий поток                              : 4846 Кбит/сек

Аудио
Формат                                   : FLAC
Формат/Информация                        : Free Lossless Audio Codec
Продолжительность                        : 1 м. 55 с.
Вид битрейта                             : Переменный
Битрейт                                  : 4845 Кбит/сек
Каналы                                   : 2 канала
Частота                                  : 192 КГц
Битовая глубина                          : 24 бит
Размер потока                            : 66,4 Мбайт (100%)
Библиотека кодирования                   : libFLAC 20080709 (UTC 2008-07-09)

Общее
Полное имя                               : D:\Раздачи\Битлз\Вечер трудного дня\Вечер трудного дня\15. Я люблю её.flac
Формат                                   : FLAC
Формат/Информация                        : Free Lossless Audio Codec
Размер файла                             : 88,9 Мбайт
Продолжительность                        : 2 м. 29 с.
Режим общего битрейта                    : Переменный
Общий поток                              : 5003 Кбит/сек

Аудио
Формат                                   : FLAC
Формат/Информация                        : Free Lossless Audio Codec
Продолжительность                        : 2 м. 29 с.
Вид битрейта                             : Переменный
Битрейт                                  : 5002 Кбит/сек
Каналы                                   : 2 канала
Частота                                  : 192 КГц
Битовая глубина                          : 24 бит
Размер потока                            : 88,8 Мбайт (100%)
Библиотека кодирования                   : libFLAC 20080709 (UTC 2008-07-09)

Общее
Полное имя                               : D:\Раздачи\Битлз\Вечер трудного дня\Вечер трудного дня\16. Скажи мне, почему.flac
Формат                                   : FLAC
Формат/Информация                        : Free Lossless Audio Codec
Размер файла                             : 77,1 Мбайт
Продолжительность                        : 2 м. 8 с.
Режим общего битрейта                    : Переменный
Общий поток                              : 5052 Кбит/сек

Аудио
Формат                                   : FLAC
Формат/Информация                        : Free Lossless Audio Codec
Продолжительность                        : 2 м. 8 с.
Вид битрейта                             : Переменный
Битрейт                                  : 5051 Кбит/сек
Каналы                                   : 2 канала
Частота                                  : 192 КГц
Битовая глубина                          : 24 бит
Размер потока                            : 77,1 Мбайт (100%)
Библиотека кодирования                   : libFLAC 20080709 (UTC 2008-07-09)

Общее
Полное имя                               : D:\Раздачи\Битлз\Вечер трудного дня\Вечер трудного дня\17. Любовь не купишь.flac
Формат                                   : FLAC
Формат/Информация                        : Free Lossless Audio Codec
Размер файла                             : 81,5 Мбайт
Продолжительность                        : 2 м. 11 с.
Режим общего битрейта                    : Переменный
Общий поток                              : 5218 Кбит/сек

Аудио
Формат                                   : FLAC
Формат/Информация                        : Free Lossless Audio Codec
Продолжительность                        : 2 м. 11 с.
Вид битрейта                             : Переменный
Битрейт                                  : 5217 Кбит/сек
Каналы                                   : 2 канала
Частота                                  : 192 КГц
Битовая глубина                          : 24 бит
Размер потока                            : 81,5 Мбайт (100%)
Библиотека кодирования                   : libFLAC 20080709 (UTC 2008-07-09)

Общее
Полное имя                               : D:\Раздачи\Битлз\Вечер трудного дня\Вечер трудного дня\21. Когда угодно.flac
Формат                                   : FLAC
Формат/Информация                        : Free Lossless Audio Codec
Размер файла                             : 81,9 Мбайт
Продолжительность                        : 2 м. 11 с.
Режим общего битрейта                    : Переменный
Общий поток                              : 5247 Кбит/сек

Аудио
Формат                                   : FLAC
Формат/Информация                        : Free Lossless Audio Codec
Продолжительность                        : 2 м. 11 с.
Вид битрейта                             : Переменный
Битрейт                                  : 5246 Кбит/сек
Каналы                                   : 2 канала
Частота                                  : 192 КГц
Битовая глубина                          : 24 бит
Размер потока                            : 81,9 Мбайт (100%)
Библиотека кодирования                   : libFLAC 20080709 (UTC 2008-07-09)

Общее
Полное имя                               : D:\Раздачи\Битлз\Вечер трудного дня\Вечер трудного дня\22. Я буду рыдать.flac
Формат                                   : FLAC
Формат/Информация                        : Free Lossless Audio Codec
Размер файла                             : 68,4 Мбайт
Продолжительность                        : 1 м. 46 с.
Режим общего битрейта                    : Переменный
Общий поток                              : 5410 Кбит/сек

Аудио
Формат                                   : FLAC
Формат/Информация                        : Free Lossless Audio Codec
Продолжительность                        : 1 м. 46 с.
Вид битрейта                             : Переменный
Битрейт                                  : 5409 Кбит/сек
Каналы                                   : 2 канала
Частота                                  : 192 КГц
Битовая глубина                          : 24 бит
Размер потока                            : 68,3 Мбайт (100%)
Библиотека кодирования                   : libFLAC 20080709 (UTC 2008-07-09)

Общее
Полное имя                               : D:\Раздачи\Битлз\Вечер трудного дня\Вечер трудного дня\23. Слова, что сказаны сегодня.flac
Формат                                   : FLAC
Формат/Информация                        : Free Lossless Audio Codec
Размер файла                             : 92,2 Мбайт
Продолжительность                        : 2 м. 35 с.
Режим общего битрейта                    : Переменный
Общий поток                              : 4991 Кбит/сек

Аудио
Формат                                   : FLAC
Формат/Информация                        : Free Lossless Audio Codec
Продолжительность                        : 2 м. 35 с.
Вид битрейта                             : Переменный
Битрейт                                  : 4990 Кбит/сек
Каналы                                   : 2 канала
Частота                                  : 192 КГц
Битовая глубина                          : 24 бит
Размер потока                            : 92,2 Мбайт (100%)
Библиотека кодирования                   : libFLAC 20080709 (UTC 2008-07-09)

Общее
Полное имя                               : D:\Раздачи\Битлз\Вечер трудного дня\Вечер трудного дня\24. Не смей!.flac
Формат                                   : FLAC
Формат/Информация                        : Free Lossless Audio Codec
Размер файла                             : 94,9 Мбайт
Продолжительность                        : 2 м. 34 с.
Режим общего битрейта                    : Переменный
Общий поток                              : 5172 Кбит/сек

Аудио
Формат                                   : FLAC
Формат/Информация                        : Free Lossless Audio Codec
Продолжительность                        : 2 м. 34 с.
Вид битрейта                             : Переменный
Битрейт                                  : 5171 Кбит/сек
Каналы                                   : 2 канала
Частота                                  : 192 КГц
Битовая глубина                          : 24 бит
Размер потока                            : 94,9 Мбайт (100%)
Библиотека кодирования                   : libFLAC 20080709 (UTC 2008-07-09)

Общее
Полное имя                               : D:\Раздачи\Битлз\Вечер трудного дня\Вечер трудного дня\25. Я вернусь.flac
Формат                                   : FLAC
Формат/Информация                        : Free Lossless Audio Codec
Размер файла                             : 83,6 Мбайт
Продолжительность                        : 2 м. 21 с.
Режим общего битрейта                    : Переменный
Общий поток                              : 4974 Кбит/сек

Аудио
Формат                                   : FLAC
Формат/Информация                        : Free Lossless Audio Codec
Продолжительность                        : 2 м. 21 с.
Вид битрейта                             : Переменный
Битрейт                                  : 4974 Кбит/сек
Каналы                                   : 2 канала
Частота                                  : 192 КГц
Битовая глубина                          : 24 бит
Размер потока                            : 83,6 Мбайт (100%)
Библиотека кодирования                   : libFLAC 20080709 (UTC 2008-07-09)
Время раздачи: С 12:00 до 2:00 (другое время по возможности)
[NNM-Club.ru]_Vecher trudnogo dnya.torrent
 Торрент: Платиновая раздача  Зарегистрирован
 
Скачать


Примагнититься
 Зарегистрирован:   10 Фев 2013 18:06:19
 Размер:   1021 MB  (
 Рейтинг:   4,9 (Голосов: 23)
 Поблагодарили:   79
 Проверка:   Оформление проверено модератором 11 Фев 2013 12:36:25
Как cкачать  ·  Как раздать  ·  Правильно оформить  ·  Поднять ратио!  
mihails
Стаж: 12 лет 3 мес.
Сообщений: 703
Ratio: 15,274
100%
latvia.gif
Отличный диск! Имею винил в коллекции. Спасибо,tamtutnet :респект:
Алекс18
Стаж: 8 лет 8 мес.
Сообщений: 353
Ratio: 69,576
100%
When I Get Home зажали
tamtutnet ®
Стаж: 10 лет 4 мес.
Сообщений: 612
Ratio: 156,149
Поблагодарили: 23695
100%
Откуда: Санкт-Петербуг
russia.gif
mihails писал(а): Перейти к сообщению
Отличный диск! Имею винил в коллекции.

Спасибо, mihails. Честно сказать, нелегкая стояла задача!
atatree
Стаж: 9 лет 10 мес.
Сообщений: 151
Ratio: 4,999
100%
Был у меня такой. Но все винилы, однажды выкинули. Едва ли не первый музыкальный "альбом" который я послушал в детстве.
Влад Осси
Стаж: 9 лет 1 мес.
Сообщений: 91
Ratio: 0,556
Поблагодарили: 129
80%
ukraine.gif
неверно указан год. правильно - 1985.
tamtutnet ®
Стаж: 10 лет 4 мес.
Сообщений: 612
Ratio: 156,149
Поблагодарили: 23695
100%
Откуда: Санкт-Петербуг
russia.gif
Влад Осси писал(а): Перейти к сообщению
неверно указан год. правильно - 1985.

Пластинка выпускалась разными заводами и в разное время: с 1986 по 1991 год (beatlesvinyl.com)
Топик был перенесен из форума Vinyl-Rip и Hand-Made в форум Архив Музыки

Причина переноса: По просьбе релизера.

Исправил релиз - напиши ЛС ALLic, дав ссылку на релиз.
Если нет ответа 24 часа - нажми на кнопку "Обратить внимание модераторов".
Показать сообщения:   
Начать новую тему   Ответить на тему    Торрент-трекер NNM-Club -> Архив торрентов -> Архив Музыки Часовой пояс: GMT + 3
Страница 1 из 1