Классический форум-трекер
canvas not supported
Нас вместе: 4 093 464

После дождичка в четверг (1985) DVDRip [H.264]


 
 
RSS
Начать новую тему   Ответить на тему    Торрент-трекер NNM-Club -> Видео -> Отечественные Фильмы для детей
Автор Сообщение
almikl ®
Куратор Детского.
Модератор Видео.
RG Всё лучшее - детям!
Uploader 500+
 
Стаж: 12 лет 8 мес.
Сообщений: 4820
Ratio: 358,436
Поблагодарили: 111007
100%
Откуда: Дааалекое Подмосковье
russia.gif
После дождичка в четверг (1985) DVDRip
Жанр: Сказка, Семейный

Режиссер: Михаил Юзовский
Актеры: Олег Табаков, Татьяна Пельтцер, Валентина Талызина, Юрий Медведев, Владимир Федоров, Семен Фарада, Олег Анофриев, Владислав Толдыков, Марина Зудина, Алексей Войтюк, Марина Яковлева, Геннадий Фролов, Василий Кортуков, Мария Барабанова, Георгий Милляр, Владимир Епископосян, Наталья Крачковская.

Описание:
Однажды, после дождичка в четверг, у царя Авдея родился первенец. В тот же день родила мальчика и ключница Варвара, а в капусте был обнаружен новорожденный подкидыш. Всех троих нарекли Иванами — и Авдей приказал растить хлопцев вместе. Однако ключница сделала по-своему: положила в царскую люльку своего Ивана, а двух других отдала разбойникам…
Пройдет двадцать лет, прежде чем царевич победит Кащея Бессмертного, найдет отца и освободит Жар-птицу, которая станет прекрасной девушкой…

Продолжительность: 01:14:35

Image

Видеокодек: MPEG-4 AVC/H.264
Битрейт видео: ~2052 Кбит/сек
Размер кадра: 688 х 444
Качество видео: DVDRip
Аудиокодек: AC3 5.1
Битрейт аудио: 448 Кбит/сек
Общее
Уникальный идентификатор : 245873506433602173315448078815550583487 (0xB8F983CDAE63D62F8CD6E152F47132BF)
Полное имя : G:\_Reliz\Posle dojdichka, v chetverg.1985.DVDRip-AVC.h264.almikl.mkv
Формат : Matroska
Версия формата : Version 2
Размер файла : 1,30 Гбайт
Продолжительность : 1 ч. 14 м.
Общий поток : 2502 Кбит/сек
Дата кодирования : UTC 2013-01-31 10:40:52
Программа кодирования : mkvmerge v5.8.0 ('No Sleep / Pillow') built on Sep 2 2012 15:37:04
Библиотека кодирования : libebml v1.2.3 + libmatroska v1.3.0

Видео
Идентификатор : 1
Формат : AVC
Формат/Информация : Advanced Video Codec
Профиль формата : High@L4.1
Параметр CABAC формата : Да
Параметр ReFrames формата : 6 кадров
Идентификатор кодека : V_MPEG4/ISO/AVC
Продолжительность : 1 ч. 14 м.
Битрейт : 2052 Кбит/сек
Ширина : 688 пикселей
Высота : 444 пикселя
Соотношение сторон : 1,696
Соотношение сторон в оригинале : 1,695
Режим частоты кадров : Постоянный
Частота кадров : 25,000 кадров/сек
Цветовое пространство : YUV
Субдискретизация насыщенности : 4:2:0
Битовая глубина : 8 бит
Тип развёртки : Прогрессивная
Бит/(Пиксели*Кадры) : 0.269
Размер потока : 1,04 Гбайт (80%)
Библиотека кодирования : x264 core 129 r2230 1cffe9f
Настройки программы : cabac=1 / ref=6 / deblock=1:-1:-1 / analyse=0x3:0x113 / me=umh / subme=10 / psy=1 / psy_rd=1.00:0.15 / mixed_ref=1 / me_range=32 / chroma_me=1 / trellis=2 / 8x8dct=1 / cqm=0 / deadzone=21,11 / fast_pskip=1 / chroma_qp_offset=-3 / threads=12 / lookahead_threads=2 / sliced_threads=0 / nr=0 / decimate=1 / interlaced=0 / bluray_compat=0 / constrained_intra=0 / bframes=10 / b_pyramid=2 / b_adapt=2 / b_bias=0 / direct=1 / weightb=1 / open_gop=0 / weightp=2 / keyint=250 / keyint_min=25 / scenecut=40 / intra_refresh=0 / rc_lookahead=40 / rc=2pass / mbtree=1 / bitrate=2052 / ratetol=1.0 / qcomp=0.60 / qpmin=10 / qpmax=51 / qpstep=4 / cplxblur=20.0 / qblur=0.5 / ip_ratio=1.40 / aq=1:1.00
Default : Да
Forced : Нет

Аудио
Идентификатор : 2
Формат : AC-3
Формат/Информация : Audio Coding 3
Расширение режима : CM (complete main)
Параметр Endianness формата : Big
Идентификатор кодека : A_AC3
Продолжительность : 1 ч. 14 м.
Вид битрейта : Постоянный
Битрейт : 448 Кбит/сек
Каналы : 6 каналов
Расположение каналов : Front: L C R, Side: L R, LFE
Частота : 48,0 КГц
Битовая глубина : 16 бит
Метод сжатия : С потерями
Размер потока : 239 Мбайт (18%)
Default : Да
Forced : Нет
Скриншоты:




Время раздачи: 24/7, до 10 скачавших
Релиз-группа: by almikl ® &
Все релизы После дождичка, в четверг... на NNM-CLUB
[NNM-Club.me]_[NNM-Club.ru]_Posle dojdichka, v chetverg.1985.DVDRip-AVC.h264.almikl.mkv.torrent
 Торрент: Платиновая раздача  Зарегистрирован
 
Скачать


Примагнититься
 Зарегистрирован:   14 Янв 2019 16:26:43
 Размер:   1,3 GB  (
 Рейтинг:   4,8 (Голосов: 77)
 Поблагодарили:   318
 Проверка:   Оформление проверено модератором 14 Янв 2019 16:30:37
Как cкачать  ·  Как раздать  ·  Правильно оформить  ·  Поднять ратио!  
im0
Стаж: 10 лет 9 мес.
Сообщений: 10
Ratio: 0,45
13.95%
Откуда: Москва
ussr.gif
Качество откровенно хреновое. Экранка в формате H.264! А жаль, фильм очень хороший.
WilsonOscar
Только чтение
Стаж: 7 лет 10 мес.
Сообщений: 1461
Ratio: 10,58
Поблагодарили: 208
1.05%
эхх одна из любимых сказок детства, жалко сейчас очень редко показывают по телевизору ...или вообще не показывают ... понапихали везде тупых дегенеративных сериалов типа СТС или ТНТ, хорошо что хоть аниме лупоглазое только по помойному 2х2 позывают !!!
Показать сообщения:   
Начать новую тему   Ответить на тему    Торрент-трекер NNM-Club -> Видео -> Отечественные Фильмы для детей Часовой пояс: GMT + 3
Страница 1 из 1