Классический форум-трекер
canvas not supported
Нас вместе: 4 084 184
Платим за отзывы

После дождичка в четверг (1985) DVD5


 
 
RSS
Начать новую тему   Ответить на тему    Торрент-трекер NNM-Club -> Видео -> Отечественные Фильмы для детей
Автор Сообщение
almikl ®
Куратор Детского.
Модератор Видео.
RG Всё лучшее - детям!
Uploader 500+
 
Стаж: 12 лет 6 мес.
Сообщений: 4786
Ratio: 348,43
Поблагодарили: 108704
100%
Откуда: Дааалекое Подмосковье
russia.gif
После дождичка в четверг (1985) DVD5
Жанр: Сказка, Семейный

Режиссер: Михаил Юзовский
Актеры: Олег Табаков, Татьяна Пельтцер, Валентина Талызина, Юрий Медведев, Владимир Федоров, Семен Фарада, Олег Анофриев, Владислав Толдыков, Марина Зудина, Алексей Войтюк, Марина Яковлева, Геннадий Фролов, Василий Кортуков, Мария Барабанова, Георгий Милляр, Владимир Епископосян, Наталья Крачковская.

Описание:
Однажды, после дождичка в четверг, у царя Авдея родился первенец. В тот же день родила мальчика и ключница Варвара, а в капусте был обнаружен новорожденный подкидыш. Всех троих нарекли Иванами — и Авдей приказал растить хлопцев вместе. Однако ключница сделала по-своему: положила в царскую люльку своего Ивана, а двух других отдала разбойникам…
Пройдет двадцать лет, прежде чем царевич победит Кащея Бессмертного, найдет отца и освободит Жар-птицу, которая станет прекрасной девушкой…

Продолжительность: 01:14:35



Видеокодек: MPEG-2
Битрейт видео: ~6491 Кбит/сек
Размер кадра: 720 х 576
Качество видео: DVD5
Аудиокодек: AC3 5.1
Битрейт аудио: 384 Кбит/сек
Title: Elements
Size: 4.28 Gb ( 4 491 924 KBytes ) - DVD-5
Enabled regions: 1, 2, 3, 4, 5, 6, 7, 8

VTS_01 :
Play Length: 00:00:13
Video: PAL 4:3 (720x576) VBR
Audio:
Not specified (Dolby AC3, 6 ch)

VTS_02 :
Play Length: 00:02:08
Video: PAL 16:9 (720x576) VBR, Auto Pan&Scan
Audio:
Not specified (Dolby AC3, 6 ch)

VTS_03 :
Play Length: 01:14:35
Video: PAL 4:3 (720x576) VBR
Audio:
Russian (Dolby AC3, 6 ch)

VTS_04 :
Play Length: 00:00:53
Video: PAL 16:9 (720x576) VBR, Auto Pan&Scan
Audio:
Russian (Dolby AC3, 2 ch)

VTS_05 :
Play Length: 00:02:41
Video: PAL 4:3 (720x576) VBR
Audio:
Russian (Dolby AC3, 2 ch)

VTS_06 :
Play Length: 00:01:29
Video: PAL 4:3 (720x576) VBR
Audio:
Russian (Dolby AC3, 2 ch)

VTS_07 :
Play Length: 00:02:21
Video: PAL 4:3 (720x576) VBR
Audio:
Russian (Dolby AC3, 2 ch)

VTS_08 :
Play Length: 00:02:04
Video: PAL 4:3 (720x576) VBR
Audio:
Russian (Dolby AC3, 2 ch)

VTS_09 :
Play Length: 00:02:05
Video: PAL 16:9 (720x576) VBR, Auto Pan&Scan
Audio:
Russian (Dolby AC3, 2 ch)

VTS_10 :
Play Length: 00:02:01
Video: PAL 4:3 (720x576) VBR
Audio:
Russian (Dolby AC3, 2 ch)

VTS_11 :
Play Length: 00:02:00
Video: PAL 4:3 (720x576) VBR
Audio:
Russian (Dolby AC3, 2 ch)
Общее
Полное имя : G:\DVD\После дождичка, в четверг 1985 DVD5\VIDEO_TS\VTS_03_2.VOB
Формат : MPEG-PS
Размер файла : 1024 Мбайт
Продолжительность : 20 м.
Режим общего битрейта : Переменный
Общий поток : 7015 Кбит/сек

Видео
Идентификатор : 224 (0xE0)
Формат : MPEG Video
Версия формата : Version 2
Профиль формата : Main@Main
Параметр BVOP формата : Да
Параметр матрицы формата : Выборочная
Параметр GOP формата : M=3, N=12
Продолжительность : 20 м.
Вид битрейта : Переменный
Битрейт : 6491 Кбит/сек
Максимальный битрейт : 8500 Кбит/сек
Ширина : 720 пикселей
Высота : 576 пикселей
Соотношение сторон : 4:3
Частота кадров : 25,000 кадров/сек
Стандарт вещания : PAL
Цветовое пространство : YUV
Субдискретизация насыщенности : 4:2:0
Битовая глубина : 8 бит
Тип развёртки : Чересстрочная
Порядок развёртки : Верхнее поле первое
Метод сжатия : С потерями
Бит/(Пиксели*Кадры) : 0.626
Размер потока : 947 Мбайт (93%)

Аудио
Идентификатор : 189 (0xBD)-128 (0x80)
Формат : AC-3
Формат/Информация : Audio Coding 3
Расширение режима : CM (complete main)
Параметр Endianness формата : Big
Режим смешивания : DVD-Video
Продолжительность : 20 м.
Вид битрейта : Постоянный
Битрейт : 384 Кбит/сек
Каналы : 6 каналов
Расположение каналов : Front: L C R, Side: L R, LFE
Частота : 48,0 КГц
Битовая глубина : 16 бит
Метод сжатия : С потерями
Задержка видео : -568 мс.
Размер потока : 56,0 Мбайт (5%)

Меню
Бонусы: Создатели и исполнители, Смотрите на ДВД
Субтитры: нет
Скриншоты:




Время раздачи: 24/7, до 10 скачавших
Релиз-группа: by almikl ® &
Все релизы После дождичка, в четверг... на NNM-CLUB
[NNM-Club.me]_[NNM-Club.ru]_Posle dozhdichka, v chetverg 1985 DVD5.torrent
 Торрент: Платиновая раздача  Зарегистрирован
 
Скачать


Примагнититься
 Зарегистрирован:   17 Дек 2018 12:38:00
 Размер:   4,28 GB  (
 Рейтинг:   4,9 (Голосов: 52)
 Поблагодарили:   175
 Проверка:   Оформление проверено модератором 17 Дек 2018 13:38:17
Как cкачать  ·  Как раздать  ·  Правильно оформить  ·  Поднять ратио!  
Loading...
Kemchuk
Реставратор Клуба
Меценат и Модератор Музыки, КПК и Мобилок, Uploader 100+
 
Стаж: 8 лет 5 мес.
Сообщений: 5804
Ratio: 201,605
Поблагодарили: 21817
100%
Откуда: RUS 50
nnm-club.gif
:приветствую: Чудо!... без комментариев! :супер!: :респект:
Показать сообщения:   
Начать новую тему   Ответить на тему    Торрент-трекер NNM-Club -> Видео -> Отечественные Фильмы для детей Часовой пояс: GMT + 3
Страница 1 из 1