Классический форум-трекер
canvas not supported
Нас вместе: 4 093 541

Звёздный крейсер Галактика: Кровь и Хром / Battlestar Galactica: Blood and Chrome (2012) BDRip (LostFilm)


 
 
RSS
Начать новую тему   Ответить на тему    Торрент-трекер NNM-Club -> Зарубежные сериалы -> Звездный Крейсер Галактика / BattleStar Galactica
Автор Сообщение
Дмитрий Валерьевич ®
Uploader 100+
Стаж: 10 лет 2 мес.
Сообщений: 6829
Ratio: 14K
Раздал: 276 TB
Поблагодарили: 326718
100%
Откуда: Есть такой город – Глазов
russia.gif
Звёздный крейсер Галактика: Кровь и Хром /
Battlestar Galactica: Blood and Chrome
(2012) BDRip (LostFilm)

Русское название: Звёздный крейсер Галактика: Кровь и Хром
Оригинальное название: Battlestar Galactica: Blood and Chrome
Год выпуска: 2012
Страна: США
Жанр: Фантастика

Перевод: Профессиональный многоголосый закадровый - LostFilm

Режиссёр: Джонас Пейт
Актёры: Люк Паскуалино, Бен Коттон, Джилл Тид, Лили Бордан, Майк Допуд, Джозеф Фалсетти, Эдриан Холмс, Карен ЛеБлан, Тоби Левинс, Брайан Маркинсон и др.

Описание:
Двенадцать Колоний Кобола. Первая сайлонская война. Недавний выпускник академии, мичман Уильям Адама поступает на службу на звёздный крейсер "Галактика". Молодому пилоту предстоят сложные и опасные задания, где ему придётся столкнуться с рукотворными врагами человеческой расы - жестокими и беспощадными сайлонами. Хромированные "тостеры" не знают ни усталости, ни сострадания. Сможет ли человек, в чьих жилах течёт обычная кровь, противостоять им?



Продолжительность: 01:33:41
Качество видео: BDRip
Формат: AVI
Видео: 720x400 (16:9), 23.976 fps, XviD ~1915 kbps, ~0.277 bit/pixel
Аудио Rus: 48 kHz, MPEG Layer 3, 2 ch, 192 kbps CBR

Озвучка: Студия "Kravec"

"Звёздный крейсер Галактика: Кровь и Хром / Battlestar Galactica: Blood and Chrome" на трекере NNM-Club
Общее
Формат : AVI
Формат/Информация : Audio Video Interleave
Размер файла : 1,39 Гбайт
Продолжительность : 1 ч. 33 м.
Режим общего битрейта : Переменный
Общий поток : 2117 Кбит/сек
Программа кодирования : Nandub v1.0rc2
Библиотека кодирования : Nandub build 1853/release

Видео
Идентификатор : 0
Формат : MPEG-4 Visual
Профиль формата : Simple@L3
Параметр BVOP формата : Нет
Параметр QPel формата : Нет
Параметр GMC формата : Без точки перехода
Параметр матрицы формата : Default (H.263)
Идентификатор кодека : XVID
Идентификатор кодека/Подсказка : XviD
Продолжительность : 1 ч. 33 м.
Битрейт : 1915 Кбит/сек
Ширина : 720 пикселей
Высота : 400 пикселей
Соотношение сторон : 16:9
Частота кадров : 23,976 кадра/сек
Цветовое пространство : YUV
Субдискретизация насыщенности : 4:2:0
Битовая глубина : 8 бит
Тип развёртки : Прогрессивная
Метод сжатия : С потерями
Бит/(Пиксели*Кадры) : 0.277
Размер потока : 1,25 Гбайт (90%)
Библиотека кодирования : XviD 1.2.1 (UTC 2008-12-04)

Аудио
Идентификатор : 1
Формат : MPEG Audio
Версия формата : Version 1
Профиль формата : Layer 3
Режим : Joint stereo
Расширение режима : MS Stereo
Идентификатор кодека : 55
Идентификатор кодека/Подсказка : MP3
Продолжительность : 1 ч. 33 м.
Вид битрейта : Переменный
Битрейт : 192 Кбит/сек
Каналы : 2 канала
Частота : 48,0 КГц
Метод сжатия : С потерями
Размер потока : 127 Мбайт (9%)
Выравнивание : Соединение по промежуткам
Продолжительность промежутка : 24 мс. (0,58 видеокадр)
Время предзагрузки промежутка : 487 мс.
Библиотека кодирования : LAME3.97b
Настройки программы : -m j -V 4 -q 3 -lowpass 18.6 --abr 192
В июле 2010 года телеканал Syfy анонсировал выход ещё одного приквела к сериалу-ремейку «Звёздный Крейсер „Галактика“» — «Кровь и Хром» (англ. Blood & Chrome), в котором события развернутся через 10 лет после начала первой сайлонской войны. Первоначально канал хотел выпустить девять или десять эпизодов, каждый не более десяти минут, но затем было решено снять полноценный телефильм, и в зависимости от его успеха у зрителей — запустить новый сериал. Исполнительным продюсером выступил Дэвид Эйк. Сценарий написал один из постоянных авторов «Галактики» — Майкл Тейлор.
21 марта 2012 года на YouTube был нелегально выложен трейлер фильма «Кровь и Хром», который прежде показывали поклонникам «Галактики» на американском конвенте WonderCon (16-18 марта, Анахайм). В результате этого инцидента дирекция SyFy была вынуждена озвучить планы по поводу проекта, заявив, что съёмок полноценного телесериала не предвидится, хотя рассматривается вариант создания эпизодов для веб-просмотра. Полуторачасовой пилотный фильм, производство которого уже завершено, будет показан в своё время на телеканале SyFy.
В начале ноября 2012 года Syfy объявил, что выпустит «Кровь и Хром», как изначально задумывалось, в виде десяти веб-эпизодов, каждый по 7-12 минут, на он-лайн канале Machinima Prime. Премьера состоялась 9 ноября. После чего новый приквел будет показан как двухчасовой фильм на самом телеканале и выйдет в расширенной версии релизом в Blu-ray/DVD/VOD.
Время раздачи: 24/7
[NNM-Club.ru]_Battlestar.Galactica.Blood.and.Chrome.rus.LostFilm.TV.avi.torrent
 Торрент: Платиновая раздача  Зарегистрирован
 
Скачать


 Зарегистрирован:   14 Фев 2013 15:07:58
 Размер:   1,39 GB  (
 Рейтинг:   4,8 (Голосов: 132)
 Поблагодарили:   570
 Проверка:   Оформление проверено модератором 14 Фев 2013 15:21:43
Как cкачать  ·  Как раздать  ·  Правильно оформить  ·  Поднять ратио!  
ilanbu
Стаж: 8 лет 9 мес.
Сообщений: 219
Ratio: 9,561
100%
czechrepublic.gif
Это склеенный во едино сериал?
presaria
Стаж: 8 лет 10 мес.
Сообщений: 181
Ratio: 61,754
Поблагодарили: 7435
100%
Откуда: Мариуполь
ukraine.gif
Так точно. У меня тоже была идея его склеить и выложить.
Да подумал что все посмотрели и не стал.
Спасибо

_________________
Моряки иногда дрейфуют, но никогда не дрейфят
Дмитрий Валерьевич ®
Uploader 100+
Стаж: 10 лет 2 мес.
Сообщений: 6829
Ratio: 14K
Раздал: 276 TB
Поблагодарили: 326718
100%
Откуда: Есть такой город – Глазов
russia.gif
ilanbu писал(а): Перейти к сообщению
Это склеенный во едино сериал?
presaria писал(а): Перейти к сообщению
Так точно. У меня тоже была идея его склеить и выложить.
Да подумал что все посмотрели и не стал.
Спасибо

Это полная версия с дополнительными тремя минутами, которых не было в веб-эпизодах.
Максим Пупкин
Стаж: 10 лет
Сообщений: 256
Ratio: 10,15
Раздал: 28,65 TB
100%
Посмотрел с большим интересом спасибо заподготовку автору! Не пиф-па, типа Ван-дам очередной и так далеее.

Добавлено спустя 1 минуту:

Клава залипает, извиняюсь.
kola2
Стаж: 9 лет
Сообщений: 90
Ratio: 1,997
100%
belarus.gif
Спасибо. Беру.
ТриПисят
Стаж: 7 лет 10 мес.
Сообщений: 8
Ratio: 0,134
22.22%
Какая то жалкая пародия на оригинальный сериал. Выдержал чуть больше полу часа просмотра.
tsit
Стаж: 8 лет 11 мес.
Сообщений: 3
Ratio: 8,175
11.22%
ТриПисят писал(а): Перейти к сообщению
Какая то жалкая пародия на оригинальный сериал. Выдержал чуть больше полу часа просмотра.


Подскажите ссылку, пожалуйста на режиссёрскую версию оригинального сериала (2004—2009)
Показать сообщения:   
Начать новую тему   Ответить на тему    Торрент-трекер NNM-Club -> Зарубежные сериалы -> Звездный Крейсер Галактика / BattleStar Galactica Часовой пояс: GMT + 3
Страница 1 из 1