Классический форум-трекер
canvas not supported
Нас вместе: 4 083 831
Платим за отзывы

Отпетые мошенники / Dirty Rotten Scoundrels (1988) [1080p] BDRip


 
 
RSS
Начать новую тему   Ответить на тему    Торрент-трекер NNM-Club -> Классика кино и Старые фильмы до 90-х -> Старые Зарубежные Фильмы (HD, UHD, UHD-LQ, 3D)
Автор Сообщение
maxwelex ®
Стаж: 9 лет 10 мес.
Сообщений: 346
Ratio: 195,839
Раздал: 115,8 TB
Поблагодарили: 25954
100%
Откуда: Северный Кавказ
ussr.gif
Отпетые мошенники / Dirty Rotten Scoundrels (1988) BDRip

Русское название: Отпетые мошенники
Оригинальное название: Dirty Rotten Scoundrels
Год выпуска: 1988
Страна: США
Жанр: Комедия, Криминал
Описание фильма:
Судьба сводит двух «отпетых мошенников» — Фредди Бенсона и Лоуренса Джемисона, специализирующихся в качестве жиголо в оболванивании богатеньких дам. В городке, где-то на юге Франции, Фредди сначала берет уроки у мэтра Лоуренса, но, повздорив, коллеги заключают пари: кто из них первый охмурит незнакомую богатую женщину, тот остается в городе, а проигравший должен убраться. Предмет спора не замедлил явиться в виде симпатичной и обаятельной «мыльной королевы» Америки — Дженет...

Режиссер: Фрэнк Оз
Актеры: Стив Мартин, Майкл Кейн, Гленн Хедли, Антон Роджерс, Барбара Хэррис, Ян МакДермид, Дэна Айви, Меган Фэй, Фрэнсис Конрой, Николь Кальфан, Айна Валле, Шерил Пэй, Натали Оффре, Лолли Сьюзи, Руперт Холидэй-Эванс, Хепберн Грэхэм, Ксавье Мали, Андре Пенверн, Жорж Джеррард Баффо, Валери Бофил, Патриция Дэвидсон

Продолжительность: 01:50:21
Перевод:
• Профессиональный (полное дублирование)
• Профессиональный (многоголосый закадровый)
• Профессиональный (двухголосый закадровый)
• Авторский (одноголосый закадровый)

Язык субтитров: Русский (2 вида), английский
Вид субтитров: Вшитые отключаемые



Дата мировой премьеры: 14 декабря 1988
Дата выхода DVD релиза: 28 августа 2008, «Двадцатый Век Фокс СНГ»
Видеокодек: MPEG-4 AVC/H.264
Битрейт видео: ~17496 kbps
Размер кадра: 1920x1040
Качество видео: BDRip 1080p
Контейнер: MKV

Аудиокодек: AC3 , DTS , DTS-HD MA
Аудио #1: Русский ( AC3 / 2.0 / 48 kHz / 192 kbps ) - Профессиональный (многоголосый) - R5
Аудио #2: Русский ( AC3 / 2.0 / 48 kHz / 192 kbps ) - Профессиональный (многоголосый) - НТВ
Аудио #3: Русский ( AC3 / 2.0 / 48 kHz / 192 kbps ) - Профессиональный (многоголосый) - ВГТРК
Аудио #4: Русский ( AC3 / 2.0 / 48 kHz / 192 kbps ) - Дубляж
Аудио #5: Русский ( AC3 / 5.1 / 48 kHz / 384 kbps ) - Профессиональный (многоголосый)
Аудио #6: Русский ( AC3 / 5.1 / 48 kHz / 384 kbps ) - Профессиональный (двухголосый) - Визгунов+дама
Аудио #7: Русский ( AC3 / 2.0 / 48 kHz / 192 kbps ) - Авторский (одноголосый) - В.Горчаков
Аудио #8: Русский ( DTS / 5.1 / 48 kHz / 1510 kbps ) - Авторский (одноголосый) - А.Михалев
Аудио #9: Русский ( DTS / 5.1 / 48 kHz / 1510 kbps ) - Авторский (одноголосый) - Ю.Живов
Аудио #10: Русский ( DTS / 5.1 / 48 kHz / 1510 kbps ) - Авторский (одноголосый) - Ю.Сербин
Аудио #11: Английский ( DTS-HD MA / 5.1 / 48 kHz / 3504 kbps / 24-bit (DTS Core: 5.1 / 48 kHz / 1510 kbps / 24-bit )

В дубляже в местах цензуры советского проката имеются закадровые вставки

Общее
Уникальный идентификатор : 249805249367572105329774339342894232263 (0xBBEEBDB2522E1F8E928834B09FF5F2C7)
Полное имя : Отпетые мошенники.1988.[1080p].BDRip.mkv
Формат : Matroska
Версия формата : Version 4 / Version 2
Размер файла : 21,0 Гбайт
Продолжительность : 1 ч. 50 м.
Режим общего битрейта : Переменный
Общий поток : 27,3 Мбит/сек
Название фильма : Dirty.Rotten.Scoundrels.1988.1080p.Bluray.AVC.Remux
Дата кодирования : UTC 2013-02-17 05:50:13
Программа кодирования : mkvmerge v6.0.0 ('Coming Up For Air') built on Jan 20 2013 09:52:00
Библиотека кодирования : libebml v1.3.0 + libmatroska v1.4.0

Видео
Идентификатор : 1
Формат : AVC
Формат/Информация : Advanced Video Codec
Профиль формата : High@L4.1
Параметр CABAC формата : Да
Параметр ReFrames формата : 4 кадра
Идентификатор кодека : V_MPEG4/ISO/AVC
Продолжительность : 1 ч. 50 м.
Битрейт : 18,9 Мбит/сек
Номинальный битрейт : 17,5 Мбит/сек
Ширина : 1920 пикселей
Высота : 1040 пикселей
Соотношение сторон : 1,85:1
Режим частоты кадров : Постоянный
Частота кадров : 23,976 кадра/сек
Цветовое пространство : YUV
Субдискретизация насыщенности : 4:2:0
Битовая глубина : 8 бит
Тип развёртки : Прогрессивная
Бит/(Пиксели*Кадры) : 0.395
Размер потока : 14,6 Гбайт (69%)
Библиотека кодирования : x264 core 129 r2230 1cffe9f
Настройки программы : cabac=1 / ref=4 / deblock=1:-2:-2 / analyse=0x3:0x133 / me=umh / subme=9 / psy=1 / psy_rd=1.00:0.25 / mixed_ref=1 / me_range=24 / chroma_me=1 / trellis=2 / 8x8dct=1 / cqm=0 / deadzone=6,6 / fast_pskip=1 / chroma_qp_offset=-4 / threads=6 / lookahead_threads=1 / sliced_threads=0 / nr=0 / decimate=0 / interlaced=0 / bluray_compat=0 / constrained_intra=0 / bframes=3 / b_pyramid=2 / b_adapt=2 / b_bias=0 / direct=3 / weightb=1 / open_gop=0 / weightp=2 / keyint=240 / keyint_min=23 / scenecut=40 / intra_refresh=0 / rc_lookahead=60 / rc=2pass / mbtree=1 / bitrate=17496 / ratetol=1.0 / qcomp=0.80 / qpmin=10 / qpmax=51 / qpstep=4 / cplxblur=20.0 / qblur=0.5 / ip_ratio=1.10 / aq=1:0.50
Язык : English
Default : Да
Forced : Нет

Аудио #1
Идентификатор : 2
Формат : AC-3
Формат/Информация : Audio Coding 3
Расширение режима : CM (complete main)
Параметр Endianness формата : Big
Идентификатор кодека : A_AC3
Продолжительность : 1 ч. 50 м.
Вид битрейта : Постоянный
Битрейт : 192 Кбит/сек
Каналы : 2 канала
Расположение каналов : Front: L R
Частота : 48,0 КГц
Битовая глубина : 16 бит
Метод сжатия : С потерями
Размер потока : 152 Мбайт (1%)
Заголовок : R5
Язык : Russian
Default : Да
Forced : Нет

Аудио #2
Идентификатор : 3
Формат : AC-3
Формат/Информация : Audio Coding 3
Расширение режима : CM (complete main)
Параметр Endianness формата : Big
Идентификатор кодека : A_AC3
Продолжительность : 1 ч. 50 м.
Вид битрейта : Постоянный
Битрейт : 192 Кбит/сек
Каналы : 2 канала
Расположение каналов : Front: L R
Частота : 48,0 КГц
Битовая глубина : 16 бит
Метод сжатия : С потерями
Размер потока : 152 Мбайт (1%)
Заголовок : НТВ
Язык : Russian
Default : Нет
Forced : Нет

Аудио #3
Идентификатор : 4
Формат : AC-3
Формат/Информация : Audio Coding 3
Расширение режима : CM (complete main)
Параметр Endianness формата : Big
Идентификатор кодека : A_AC3
Продолжительность : 1 ч. 50 м.
Вид битрейта : Постоянный
Битрейт : 192 Кбит/сек
Каналы : 2 канала
Расположение каналов : Front: L R
Частота : 48,0 КГц
Битовая глубина : 16 бит
Метод сжатия : С потерями
Размер потока : 152 Мбайт (1%)
Заголовок : РТР
Язык : Russian
Default : Нет
Forced : Нет

Аудио #4
Идентификатор : 5
Формат : AC-3
Формат/Информация : Audio Coding 3
Расширение режима : CM (complete main)
Параметр Endianness формата : Big
Идентификатор кодека : A_AC3
Продолжительность : 1 ч. 50 м.
Вид битрейта : Постоянный
Битрейт : 192 Кбит/сек
Каналы : 2 канала
Расположение каналов : Front: L R
Частота : 48,0 КГц
Битовая глубина : 16 бит
Метод сжатия : С потерями
Размер потока : 152 Мбайт (1%)
Заголовок : дубляж
Язык : Russian
Default : Нет
Forced : Нет

Аудио #5
Идентификатор : 6
Формат : AC-3
Формат/Информация : Audio Coding 3
Расширение режима : CM (complete main)
Параметр Endianness формата : Big
Идентификатор кодека : A_AC3
Продолжительность : 1 ч. 50 м.
Вид битрейта : Постоянный
Битрейт : 384 Кбит/сек
Каналы : 6 каналов
Расположение каналов : Front: L C R, Side: L R, LFE
Частота : 48,0 КГц
Битовая глубина : 16 бит
Метод сжатия : С потерями
Размер потока : 303 Мбайт (1%)
Заголовок : многоголосый
Язык : Russian
Default : Нет
Forced : Нет

Аудио #6
Идентификатор : 7
Формат : AC-3
Формат/Информация : Audio Coding 3
Расширение режима : CM (complete main)
Параметр Endianness формата : Big
Идентификатор кодека : A_AC3
Продолжительность : 1 ч. 50 м.
Вид битрейта : Постоянный
Битрейт : 384 Кбит/сек
Каналы : 6 каналов
Расположение каналов : Front: L C R, Side: L R, LFE
Частота : 48,0 КГц
Битовая глубина : 16 бит
Метод сжатия : С потерями
Размер потока : 303 Мбайт (1%)
Заголовок : Сергей Визгунов + Ж
Язык : Russian
Default : Нет
Forced : Нет

Аудио #7
Идентификатор : 8
Формат : AC-3
Формат/Информация : Audio Coding 3
Расширение режима : CM (complete main)
Параметр Endianness формата : Big
Идентификатор кодека : A_AC3
Продолжительность : 1 ч. 50 м.
Вид битрейта : Постоянный
Битрейт : 192 Кбит/сек
Каналы : 2 канала
Расположение каналов : Front: L R
Частота : 48,0 КГц
Битовая глубина : 16 бит
Метод сжатия : С потерями
Размер потока : 152 Мбайт (1%)
Заголовок : авторский - Василий Горчаков
Язык : Russian
Default : Нет
Forced : Нет

Аудио #8
Идентификатор : 9
Формат : DTS
Формат/Информация : Digital Theater Systems
Идентификатор кодека : A_DTS
Продолжительность : 1 ч. 50 м.
Вид битрейта : Постоянный
Битрейт : 1510 Кбит/сек
Каналы : 6 каналов
Расположение каналов : Front: L C R, Side: L R, LFE
Частота : 48,0 КГц
Битовая глубина : 24 бит
Метод сжатия : С потерями
Размер потока : 1,16 Гбайт (6%)
Заголовок : авторский - Алексей Михалев
Язык : Russian
Default : Нет
Forced : Нет

Аудио #9
Идентификатор : 10
Формат : DTS
Формат/Информация : Digital Theater Systems
Идентификатор кодека : A_DTS
Продолжительность : 1 ч. 50 м.
Вид битрейта : Постоянный
Битрейт : 1510 Кбит/сек
Каналы : 6 каналов
Расположение каналов : Front: L C R, Side: L R, LFE
Частота : 48,0 КГц
Битовая глубина : 24 бит
Метод сжатия : С потерями
Размер потока : 1,16 Гбайт (6%)
Заголовок : авторский - Юрий Живов
Язык : Russian
Default : Нет
Forced : Нет

Аудио #10
Идентификатор : 11
Формат : DTS
Формат/Информация : Digital Theater Systems
Идентификатор кодека : A_DTS
Продолжительность : 1 ч. 50 м.
Вид битрейта : Постоянный
Битрейт : 1510 Кбит/сек
Каналы : 6 каналов
Расположение каналов : Front: L C R, Side: L R, LFE
Частота : 48,0 КГц
Битовая глубина : 24 бит
Метод сжатия : С потерями
Размер потока : 1,16 Гбайт (6%)
Заголовок : авторский - Юрий Сербин
Язык : Russian
Default : Нет
Forced : Нет

Аудио #11
Идентификатор : 12
Формат : DTS
Формат/Информация : Digital Theater Systems
Профиль формата : MA / Core
Идентификатор кодека : A_DTS
Продолжительность : 1 ч. 50 м.
Вид битрейта : Переменный
Битрейт : 1561 Кбит/сек / 1510 Кбит/сек
Каналы : 6 каналов
Расположение каналов : Front: L C R, Side: L R, LFE
Частота : 48,0 КГц
Битовая глубина : 24 бит
Метод сжатия : Без потерь / Lossy
Язык : English
Default : Нет
Forced : Нет

Текст #1
Идентификатор : 13
Формат : UTF-8
Идентификатор кодека : S_TEXT/UTF8
Идентификатор кодека/Информация : UTF-8 Plain Text
Заголовок : R5
Язык : Russian
Default : Да
Forced : Нет

Текст #2
Идентификатор : 14
Формат : UTF-8
Идентификатор кодека : S_TEXT/UTF8
Идентификатор кодека/Информация : UTF-8 Plain Text
Язык : Russian
Default : Нет
Forced : Нет

Текст #3
Идентификатор : 15
Формат : UTF-8
Идентификатор кодека : S_TEXT/UTF8
Идентификатор кодека/Информация : UTF-8 Plain Text
Заголовок : SDH
Язык : English
Default : Нет
Forced : Нет

Меню
00:00:00.000 : en:00:00:00.000
00:08:08.238 : en:00:08:08.238
00:18:47.126 : en:00:18:47.126
00:23:50.304 : en:00:23:50.304
00:29:23.553 : en:00:29:23.553
00:32:37.747 : en:00:32:37.747
00:40:01.107 : en:00:40:01.107
00:47:10.036 : en:00:47:10.036
00:56:19.459 : en:00:56:19.459
01:04:24.152 : en:01:04:24.152
01:10:00.530 : en:01:10:00.530
01:16:26.749 : en:01:16:26.749
01:24:23.684 : en:01:24:23.684
01:28:24.049 : en:01:28:24.049
01:34:02.178 : en:01:34:02.178
01:41:53.399 : en:01:41:53.399


Скриншоты:








Время раздачи: с 10:00 до 23:00 ежедневно
[NNM-Club.ru]_Otpetyie moshenniki.1988.[1080p].BDRip.mkv.torrent
 Торрент: Платиновая раздача  Зарегистрирован
 
Скачать


 Зарегистрирован:   17 Фев 2013 12:44:36
 Размер:   21 GB  (
 Рейтинг:   4,9 (Голосов: 39)
 Поблагодарили:   137
 Проверка:   Оформление проверено модератором 17 Фев 2013 13:48:41
Как cкачать  ·  Как раздать  ·  Правильно оформить  ·  Поднять ратио!  
Loading...
Lelya_K
Стаж: 8 лет 8 мес.
Сообщений: 5537
Ratio: 7169,418
Раздал: 109,3 TB
Поблагодарили: 619519
100%
Откуда: Московская область
nnm-club.gif
maxwelex писал(а):
Аудио #11: Английский ( DTS-HD MA / 5.1 / 48 kHz / 3504 kbps / 24-bit (DTS Core: 5.1 / 48 kHz / 1510 kbps / 24-bit )

Для рип много. Одного ядра вполне было бы достаточно.
Crying in the space
Стаж: 7 лет 5 мес.
Сообщений: 14
Ratio: 2,498
100%
Любимый фильм *_*
спасибо!
на кассете только остался же.
Симакрутой
Стаж: 7 лет 1 мес.
Сообщений: 2
Ratio: 30,471
100%
Может кто-нибудь раздать, пожалуйста?
_plut_
Стаж: 8 лет 11 мес.
Сообщений: 5
Ratio: 34,982
4.69%
russia.gif
торрент мёртвый
musemi
Стаж: 4 года 7 мес.
Сообщений: 41
Ratio: 11,272
56.97%
Лучше бы удалили раздачу, если не раздаёте!
Показать сообщения:   
Начать новую тему   Ответить на тему    Торрент-трекер NNM-Club -> Классика кино и Старые фильмы до 90-х -> Старые Зарубежные Фильмы (HD, UHD, UHD-LQ, 3D) Часовой пояс: GMT + 3
Страница 1 из 1