Классический форум-трекер
canvas not supported
Нас вместе: 4 079 131

Преступления и проступки / Crimes and Misdemeanors (1989) DVD9


 
 
RSS
Начать новую тему   Ответить на тему    Торрент-трекер NNM-Club -> Классика кино и Старые фильмы до 90-х -> Старые Зарубежные Фильмы (DVD)
Автор Сообщение
Kuzebay ®
Стаж: 7 лет 6 мес.
Сообщений: 118
Ratio: 83,697
Поблагодарили: 3261
100%
Преступления и проступки / Crimes and Misdemeanors (1989) DVD9
Русское название: Преступления и проступки
Оригинальное название: Crimes and Misdemeanors
Год выпуска: 1989
Жанр: Драма, Комедия

Описание фильма:
Преуспевающий доктор Розенталь должен быть доволен жизнью. У него есть большой и красивый дом, любящая жена, дети и много друзей. Но наслаждаться размеренным существованием ему мешает бывшая любовница Долорес, с которой он провел несколько чудесных месяцев. Она, почему — то решила что он собирался оставить жену и жениться на ней.
Когда же ей стало ясно, что это не произойдет, она поступает так, как возможно поступила бы любая другая женщина — письма и звонки, грозящие крахом семейному счастью и душевному благополучию. Понимая, что должны быть приняты эффективные меры, доктор обращается за помощью к своему брату — мафиози, который знает, как решить проблему.

Режиссер: Вуди Аллен / Woody Allen
Актеры: Кэролайн Эрон / Caroline Aaron, Aлан Aлда / Alan Alda, Вуди Аллен / Woody Allen, Миа Фэрроу / Mia Farrow, Клэр Блум / Claire Bloom, Мартин Ландау / Martin Landau, Сэм Уотерстон / Sam Waterston, Джерри Орбак / Jerry Orbach, Джоэнна Глисон / Joanna Gleason, Дженни Николс / Jenny Nichols, Анхелика Хьюстон / Anjelica Huston

Продолжительность: 01:39:43
Перевод: Двухголосый закадровый | Многоголосый закадровый (НТВ) | Дублированный (Варус-Видео)

Дополнительные материалы: трейлер



Видеокодек: MPEG-2
Битрейт видео: ~7088 Кбит/сек
Размер кадра: PAL 16:9 (720x576) VBR, Auto Letterboxed
Качество видео: DVD9

Аудио 1: Английское (Dolby AC3, 2 ch, 448Kbps)
Аудио 2: Русское (Dolby AC3, 2 ch, 192Kbps) | Двухголосый закадровый
Аудио 3: Русское (Dolby AC3, 2 ch, 192Kbps) | Многоголосый закадровый (НТВ)
Аудио 4: Русское (Dolby AC3, 2 ch, 192Kbps) | Дублированный (Варус-Видео)
Субтитры: английские, французские, испанские и другие Скриншоты:
Title:
Size: 5.90 Gb ( 6 187 692 KBytes ) - DVD-9
Enabled regions: 1, 2, 3, 4, 5, 6, 7, 8

VTS_01 :
Play Length: 00:01:25
Video: PAL 16:9 (720x576) VBR, Auto Letterboxed
Audio:
English (Dolby AC3, 2 ch)
Francais (Dolby AC3, 2 ch)
Italiano (Dolby AC3, 2 ch)
Espanol (Dolby AC3, 2 ch)
Subtitles:
English
English
Francais
Italiano
Espanol
Svenska
Norsk
Dansk

VTS_02 :
Play Length: 01:39:43+00:00:05+00:00:01
Video: PAL 16:9 (720x576) VBR, Auto Letterboxed
Audio:
English (Dolby AC3, 2 ch)
Russian (Dolby AC3, 2 ch)
Russian (Dolby AC3, 2 ch)
Russian (Dolby AC3, 2 ch)
Subtitles:
English
English
Francais
Italiano
Espanol
Svenska
Norsk
Dansk
Russian

VTS_03 :
Play Length: 00:00:06
Video: PAL 16:9 (720x576) VBR, Auto Letterboxed
Audio:
English (Dolby AC3, 2 ch)
Формат : MPEG-PS
Размер файла : 1024 Мбайт
Продолжительность : 17 м.
Режим общего битрейта : Переменный
Общий поток : 8277 Кбит/сек

Видео
Идентификатор : 224 (0xE0)
Формат : MPEG Video
Версия формата : Version 2
Профиль формата : Main@Main
Параметр BVOP формата : Да
Параметр матрицы формата : Выборочная
Параметр GOP формата : M=3, N=12
Продолжительность : 17 м.
Вид битрейта : Переменный
Битрейт : 7088 Кбит/сек
Максимальный битрейт : 7000 Кбит/сек
Ширина : 720 пикселей
Высота : 576 пикселей
Соотношение сторон : 16:9
Частота кадров : 25,000 кадров/сек
Стандарт вещания : PAL
Цветовое пространство : YUV
Субдискретизация насыщенности : 4:2:0
Битовая глубина : 8 бит
Тип развёртки : Чересстрочная
Порядок развёртки : Верхнее поле первое
Метод сжатия : С потерями
Бит/(Пиксели*Кадры) : 0.684
Размер потока : 877 Мбайт (86%)

Аудио #1
Идентификатор : 189 (0xBD)-128 (0x80)
Формат : AC-3
Формат/Информация : Audio Coding 3
Расширение режима : CM (complete main)
Режим смешивания : DVD-Video
Продолжительность : 17 м.
Вид битрейта : Постоянный
Битрейт : 448 Кбит/сек
Каналы : 2 канала
Расположение каналов : Front: L R
Частота : 48,0 КГц
Битовая глубина : 16 бит
Метод сжатия : С потерями
Задержка видео : -80 мс.
Размер потока : 55,4 Мбайт (5%)

Аудио #2
Идентификатор : 189 (0xBD)-129 (0x81)
Формат : AC-3
Формат/Информация : Audio Coding 3
Расширение режима : CM (complete main)
Режим смешивания : DVD-Video
Продолжительность : 17 м.
Вид битрейта : Постоянный
Битрейт : 192 Кбит/сек
Каналы : 2 канала
Расположение каналов : Front: L R
Частота : 48,0 КГц
Битовая глубина : 16 бит
Метод сжатия : С потерями
Задержка видео : -80 мс.
Размер потока : 23,7 Мбайт (2%)

Аудио #3
Идентификатор : 189 (0xBD)-130 (0x82)
Формат : AC-3
Формат/Информация : Audio Coding 3
Расширение режима : CM (complete main)
Режим смешивания : DVD-Video
Продолжительность : 17 м.
Вид битрейта : Постоянный
Битрейт : 192 Кбит/сек
Каналы : 2 канала
Расположение каналов : Front: L R
Частота : 48,0 КГц
Битовая глубина : 16 бит
Метод сжатия : С потерями
Задержка видео : -80 мс.
Размер потока : 23,7 Мбайт (2%)

Аудио #4
Идентификатор : 189 (0xBD)-131 (0x83)
Формат : AC-3
Формат/Информация : Audio Coding 3
Расширение режима : CM (complete main)
Режим смешивания : DVD-Video
Продолжительность : 17 м.
Вид битрейта : Постоянный
Битрейт : 192 Кбит/сек
Каналы : 2 канала
Расположение каналов : Front: L R
Частота : 48,0 КГц
Битовая глубина : 16 бит
Метод сжатия : С потерями
Задержка видео : -80 мс.
Размер потока : 23,7 Мбайт (2%)

Текст
Идентификатор : 189 (0xBD)-33 (0x21)
Формат : RLE
Формат/Информация : Run-length encoding
Режим смешивания : DVD-Video

Меню
Время раздачи: 24/7 - круглосуточно
[NNM-Club.ru]_Crimes.and.Misdemeanors.1989.DVD9.torrent
 Торрент: Платиновая раздача  Зарегистрирован
 
Скачать


Примагнититься
 Зарегистрирован:   23 Фев 2013 06:01:10
 Размер:   5,9 GB  (
 Рейтинг:   4,5 (Голосов: 15)
 Поблагодарили:   62
 Проверка:   Оформление проверено модератором 25 Фев 2013 20:33:14
Как cкачать  ·  Как раздать  ·  Правильно оформить  ·  Поднять ратио!  
Kuzebay ®
Стаж: 7 лет 6 мес.
Сообщений: 118
Ratio: 83,697
Поблагодарили: 3261
100%
Вот никогда не понимал этой классификации авторское - арт-хаус. У Вуди, ну от силы фильма 3-4 тянут на артхаус. А последние фильмы так вообще галимый мейнстрим.

_________________
Предупреждения: Причина 1. Постоянное нежелание исполнять требования модератора (указать время раздачи) Рецедив!
Кто batonchik Срок действия 03 Июн 2013 19:57:34 17 Июн 2013 19:57:34 (c)
Vickhan
Стаж: 9 лет 4 мес.
Сообщений: 65
Ratio: 261,158
100%
russia.gif
Вуди Ален - чумовой "юморист" для тупых америкосов. Ни один из его фильмов не вызвал ни тени улыбки на лице (можно сказать рожи). Как современый Чарли Чаплин не прокатил.
shootin_ilya
Стаж: 9 лет 6 мес.
Сообщений: 12
Ratio: 2,106
Раздал: 360 GB
100%
russia.gif
Моё спасибо как раз стало 2000 для тебя:)
Топик был перенесен из форума Авторское кино в форум Старые Зарубежные Фильмы (DVD)



Исправил релиз - напиши ЛС MAG3131, дав ссылку на релиз.
Если нет ответа 24 часа - нажми на кнопку "Обратить внимание модераторов".
Показать сообщения:   
Начать новую тему   Ответить на тему    Торрент-трекер NNM-Club -> Классика кино и Старые фильмы до 90-х -> Старые Зарубежные Фильмы (DVD) Часовой пояс: GMT + 3
Страница 1 из 1