Классический форум-трекер
canvas not supported
Нас вместе: 4 083 526
Платим за отзывы

Черное зеркало / Black Mirror (2011) WEB-DLRip [Сезон 01] (BaibaKo)


 
 
RSS
Начать новую тему   Ответить на тему    Торрент-трекер NNM-Club -> Зарубежные сериалы
Автор Сообщение
big22 ®
Стаж: 7 лет 3 мес.
Сообщений: 48
Ratio: 37,086
Поблагодарили: 9735
100%
Откуда: Монтевидео
uruguay.gif
Черное зеркало / Black Mirror (2011) WEB-DLRip 400p [Сезон 01] (BaibaKo)
Русское название: Черное зеркало
Оригинальное название: Black Mirror
Год выпуска: 2011
Производство: Великобритания
Сезон: 1
Серии: 01-03 из 3 серий
Жанр: Драма, Триллер, Фантастика

Перевод: Многоголосый закадровый, профессиональный - BaibaKo
Релиз группа:
Авторы перевода: Светлана Самойленко, Янина Галицкая, Марик
Обложка: Татьяна Saavick



Режиссер: Отто Баферст, Эрос Лин, Брайан Уэлш
Актеры: Джоди Уиттакер, Линдсэй Дункан, Дональд Самптер, Том Гудман-Хилл, Аллен Лич, Анна Уилсон-Джонс, Хейли Этвелл, Патрик Кеннеди, Том Каллен, Дэниэл Калуя, Джессика Браун-Финдли и др.

Описание фильма:
За последние десять лет технологии всесторонне изменили нашу жизнь, прежде чем мы успели опомниться и усомниться в них. В каждом доме, на каждом столе, на каждой ладони — плазменный телевизор, монитор компьютера, дисплей смартфона — черное зеркало нашего существования в двадцать первом веке. Наша связь с реальностью меняется. Мы возложили на алтарь «Google» и «Apple» и поклоняемся им. «Facebook»-алгоритмы знают о нас больше, чем наши собственные родители. У нас есть доступ ко всей информации в мире, но в голове хватает места лишь для того, чтобы воспринять 140 символов из сообщения в твиттере. В «Чёрном зеркале» отображается всеобщее беспокойство за наш современный мир…
В сериале используется ненормативная лексика.
Озвучка:
1 серия: Елена Григорьева, Наталья Салдаева, Алексей Кузнецов и Сергей Корчак
2 серия: Татьяна Оболевич, Юлия Котурбаш, Олекса Мельник и Александр Фурман
3 серия: Светлана Доманова, Анастасия Манжай, Артемий Мирон и Виталий Ткаченко
Монтаж:
1 серия: Павел Дежин
2 серия: Виталий Мартыняк
Продолжительность: 1-ая серия 00:44:47; 2- 01:02:44; 3- 00:49:32;
Качество видео: WEB-DLRip
Сэмпл: Скачать

Видеокодек: Xvid
Битрейт видео: ~1500 Kbps
Размер кадра: 720x400
Аудиокодек: MP3
Битрейт аудио: 192 Kbps, 2 ch, 48.0 KHz (Ru,En)
General
Complete name: Black.Mirror.s01e01.WEB-DLRip.XviD.Rus.Eng.BaibaKo.tv.avi
Format : AVI
Format/Info : Audio Video Interleave
File size : 607 MiB
Duration : 44mn 47s
Overall bit rate : 1 896 Kbps

Video
ID : 0
Format : MPEG-4 Visual
Format profile : Advanced Simple@L5
Format settings, BVOP : 2
Format settings, QPel : No
Format settings, GMC : No warppoints
Format settings, Matrix : Default (H.263)
Codec ID : XVID
Codec ID/Hint : XviD
Duration : 44mn 47s
Bit rate : 1 504 Kbps
Width : 720 pixels
Height : 400 pixels
Display aspect ratio : 16:9
Frame rate : 25.000 fps
Color space : YUV
Chroma subsampling : 4:2:0
Bit depth : 8 bits
Scan type : Progressive
Compression mode : Lossy
Bits/(Pixel*Frame) : 0.209
Stream size : 482 MiB (79%)
Writing library : XviD 1.2.1 (UTC 2008-12-04)

Audio #1
ID : 1
Format : MPEG Audio
Format version : Version 1
Format profile : Layer 3
Mode : Joint stereo
Mode extension : MS Stereo
Codec ID : 55
Codec ID/Hint : MP3
Duration : 44mn 47s
Bit rate mode : Constant
Bit rate : 192 Kbps
Channel(s) : 2 channels
Sampling rate : 48.0 KHz
Compression mode : Lossy
Stream size : 61.5 MiB (10%)
Alignment : Aligned on interleaves
Interleave, duration : 160 ms (4.00 video frames)
Interleave, preload duration : 216 ms
Title : Black.Mirror.s01e01.HD720p.WEB-DL.Rus.Eng.BaibaKo.tv - [1] Russian 9ms_audio
Writing library : LAME3.99r
Encoding settings : -m j -V 4 -q 2 -lowpass 18.6 -b 192

Audio #2
ID : 2
Format : MPEG Audio
Format version : Version 1
Format profile : Layer 3
Mode : Joint stereo
Mode extension : MS Stereo
Codec ID : 55
Codec ID/Hint : MP3
Duration : 44mn 47s
Bit rate mode : Constant
Bit rate : 192 Kbps
Channel(s) : 2 channels
Sampling rate : 48.0 KHz
Compression mode : Lossy
Stream size : 61.5 MiB (10%)
Alignment : Aligned on interleaves
Interleave, duration : 160 ms (4.00 video frames)
Interleave, preload duration : 216 ms
Title : 01 The National Anthem (1080p HD)_audio
Writing library : LAME3.99r
Encoding settings : -m j -V 4 -q 2 -lowpass 18.6 -b 192
Другие раздачи сериала

Скриншоты:



Время раздачи: с 10:00 до 20:00 Мск (до 5 скачавших)
[NNM-Club.ru]_Black.Mirror.s01.400p.XviD.torrent
 Торрент: Платиновая раздача  Зарегистрирован
 
Скачать


 Зарегистрирован:   23 Фев 2013 16:33:05
 Размер:   2,08 GB  (
 Рейтинг:   4,8 (Голосов: 149)
 Поблагодарили:   860
 Проверка:   Оформление проверено модератором 24 Фев 2013 13:37:54
Как cкачать  ·  Как раздать  ·  Правильно оформить  ·  Поднять ратио!  
Loading...
SHONN
Стаж: 10 лет 6 мес.
Сообщений: 230
Ratio: 5,395
Поблагодарили: 570
15.64%
ussr.gif
Очень понравился, даже не слышал об этом мини-сериале. Спасибо!
Tyniz
Стаж: 10 лет 4 мес.
Сообщений: 277
Ratio: 2,72
Раздал: 2,3 TB
Поблагодарили: 46
100%
Откуда: Минск
belarus.gif
визуальный Бредбери =) огромное спасибо за неожиданное и располагающее к думам открытие! А что за песня во 2-й серии?

_________________
Мудрый человек знает, что жизнь обильна самыми разнообразными наслаждениями, нужно лишь умение находить их в самых простых вещах. Это первый секрет экзистенции. А второй: никогда не переживать из-за того, что ещё не случилось, а лишь может случиться.
Борис Акунин. «Смерть на брудершафт»
Kreator1974
Стаж: 7 лет
Сообщений: 650
Ratio: 8,27
100%
ukraine.gif
Очень хорошо!
Мега_Саня
Стаж: 7 лет 7 мес.
Сообщений: 516
Ratio: 3,425
Раздал: 1,964 TB
Поблагодарили: 501
100%
Откуда: Созв. Тельца, Альдебаран
pirates.png
Тоже понравился, жаль, что продолжения не будетю
Yuzich
Стаж: 8 лет 2 мес.
Сообщений: 102
Ratio: 6,7
100%
После первой серии появилось огромное желание удалить себя из всех соц.сетей и телек выбросить.
Tyniz
Стаж: 10 лет 4 мес.
Сообщений: 277
Ratio: 2,72
Раздал: 2,3 TB
Поблагодарили: 46
100%
Откуда: Минск
belarus.gif
Yuzich

уже лет 8 как выброшен :D туча свободного времени появилась. Дело за сетями... :задумался:

_________________
Мудрый человек знает, что жизнь обильна самыми разнообразными наслаждениями, нужно лишь умение находить их в самых простых вещах. Это первый секрет экзистенции. А второй: никогда не переживать из-за того, что ещё не случилось, а лишь может случиться.
Борис Акунин. «Смерть на брудершафт»
Zabavnik88
Стаж: 11 лет 10 мес.
Сообщений: 76
Ratio: 0,419
12.02%
вроде не плохо, но первая серия не очень, это как переговоры с терорюгами, глупо как то. Если таких случаев будет 100 в день то они так и будут вестись?))) Цирк)
Вторая серия получше :)
Показать сообщения:   
Начать новую тему   Ответить на тему    Торрент-трекер NNM-Club -> Зарубежные сериалы Часовой пояс: GMT + 3
Страница 1 из 1