Классический форум-трекер
canvas not supported
Нас вместе: 4 076 345

Мне отмщение, и аз воздам / Я отомстил / Fukushû suru wa ware ni ari (1979) HDRip


 
 
RSS
Начать новую тему   Ответить на тему    Торрент-трекер NNM-Club -> Зарубежное кино -> Азиатское кино (HD*Rip/LQ, DVDRip, SATRip, VHSRip)
Автор Сообщение
Al_Vasif ®
Капитан Очевидность
Uploader 100+
 
Стаж: 11 лет 6 мес.
Сообщений: 23856
Ratio: 1166,24
Поблагодарили: 31288
100%
Откуда: Ex oriente lux
wild_hogs.gif
Мне отмщение, и аз воздам / Я отомстил / Fukushû suru wa ware ni ari (1979) HDRip
Русское название: Мне отмщение, и аз воздам / Я отомстил
Оригинальное название: Fukushû suru wa ware ni ari
Год выпуска: 1979
Жанр: Драма, криминал

Описание фильма:
Семьдесят восемь дней смертельного веселья безжалостного человека — история о воре, убийце, мошеннике и очаровательном сердцееде — Ивао Энокидзу. Сёхэй Имамура преобразовал и экранизировал, основанный на исторических фактах, холодный, извращённый, и, время от времени, дьявольски забавный рассказ о похождениях циничного Ивао. Грамотно выстроенные флэшбэки, ответвление повествования от основной линии картины на рассказ об окружении героя, позволяют смотрящему сделать скрупулезный анализ формирования и развития первобытной ярости и ненависти сидящей в каждом из людей…

Режиссер: Сёхэй Имамура
Актеры: Кен Огата, Рэнтаро Микуни, Чочо Мияко, Мицуко Байсё, Маюми Огава, Нидзико Киёкава, Тайдзи Тонояма, Горо Таруми, Моеко Езава, Казуко Ширакава

Продолжительность: 02:20:30
Перевод: Одноголосый закадровый



Видеокодек: Xvid
Битрейт видео: ~1348 kbps
Размер кадра: 672x368
Качество видео: HDRip
Аудиокодек: MP3, 2ch
Битрейт аудио: 128 kbps

Сэмпл: Ссылка
Код:

Общее
Полное имя                               : Vengeance_Is_Mine.avi
Формат                                   : AVI
Формат/Информация                        : Audio Video Interleave
Размер файла                             : 1,46 Гбайт
Продолжительность                        : 2 ч. 20 м.
Общий поток                              : 1485 Кбит/сек
Название фильма                          : Vengeance.Is.Mine.1979.HDRip.AVO.All.Films
Режиссёр                                 : DIABLO93
Жанр                                     : Drama
Программа кодирования                    : VirtualDubMod 1.5.10.3 | www.virtualdub-fr.org || (build 2550/release)
Формат оригинала/Имя                     : Movie
Правообладатель                          :  .org (All Films)

Видео
Идентификатор                            : 0
Формат                                   : MPEG-4 Visual
Профиль формата                          : Advanced Simple@L5
Параметр BVOP формата                    : 2
Параметр QPel формата                    : Нет
Параметр GMC формата                     : Без точки перехода
Параметр матрицы формата                 : Выборочная
Идентификатор кодека                     : XVID
Идентификатор кодека/Подсказка           : XviD
Продолжительность                        : 2 ч. 20 м.
Битрейт                                  : 1348 Кбит/сек
Ширина                                   : 672 пикселя
Высота                                   : 368 пикселей
Соотношение сторон                       : 1,85:1
Частота кадров                           : 23,976 кадра/сек
Цветовое пространство                    : YUV
Субдискретизация насыщенности            : 4:2:0
Битовая глубина                          : 8 бит
Тип развёртки                            : Прогрессивная
Метод сжатия                             : С потерями
Бит/(Пиксели*Кадры)                      : 0.227
Размер потока                            : 1,32 Гбайт (91%)
Библиотека кодирования                   : XviD 64

Аудио
Идентификатор                            : 1
Формат                                   : MPEG Audio
Версия формата                           : Version 1
Профиль формата                          : Layer 3
Идентификатор кодека                     : 55
Идентификатор кодека/Подсказка           : MP3
Продолжительность                        : 2 ч. 20 м.
Вид битрейта                             : Постоянный
Битрейт                                  : 128 Кбит/сек
Каналы                                   : 2 канала
Частота                                  : 48,0 КГц
Метод сжатия                             : С потерями
Размер потока                            : 129 Мбайт (9%)
Выравнивание                             : Соединение по промежуткам
Продолжительность промежутка             : 42  мс. (1,00 видеокадр)
Время предзагрузки промежутка            : 504  мс.
Библиотека кодирования                   : LAME3.98r
Настройки программы                      : -m s -V 4 -q 2 -lowpass 17 -b 128

Скриншоты:


Время раздачи: C 8:00 до 23:00 мск. До первых пяти скачавших.
[NNM-Club.ru]_Vengeance_Is_Mine.avi.torrent
 Торрент: Платиновая раздача  Зарегистрирован
 
Скачать


Примагнититься
 Зарегистрирован:   02 Мар 2013 14:31:06
 Размер:   1,46 GB  (
 Рейтинг:   4,3 (Голосов: 20)
 Поблагодарили:   94
 Проверка:   Оформление проверено модератором 02 Мар 2013 17:51:35
Как cкачать  ·  Как раздать  ·  Правильно оформить  ·  Поднять ратио!  
Al_Vasif ®
Капитан Очевидность
Uploader 100+
 
Стаж: 11 лет 6 мес.
Сообщений: 23856
Ratio: 1166,24
Поблагодарили: 31288
100%
Откуда: Ex oriente lux
wild_hogs.gif
Мое впечатление - это не наше, у них все по другому. но посмотреть стоит.

_________________
На все вопросы рассмеюсь я тихо,
На все вопросы не будет ответа.
Топик был перенесен из форума Авторское кино в форум Азиатское кино (HD*Rip/LQ, DVDRip, SATRip, VHSRip)



Исправил релиз - напиши ЛС MAG3131, дав ссылку на релиз.
Если нет ответа 24 часа - нажми на кнопку "Обратить внимание модераторов".
Показать сообщения:   
Начать новую тему   Ответить на тему    Торрент-трекер NNM-Club -> Зарубежное кино -> Азиатское кино (HD*Rip/LQ, DVDRip, SATRip, VHSRip) Часовой пояс: GMT + 3
Страница 1 из 1