Классический форум-трекер
canvas not supported
Нас вместе: 4 094 686

Цирк дю Солей: Сказочный мир в 3D / Cirque du Soleil: Worlds Away 3D (2012) BDRip [Вертикальная анаморфная стереопара]


Страницы:   Пред.  1, 2 
 
RSS
Начать новую тему   Ответить на тему    Торрент-трекер NNM-Club -> Театр и Музыкальное видео -> Опера, Балет, Мюзиклы
Автор Сообщение
Romanzexlive2 ®
Стаж: 9 лет 3 мес.
Сообщений: 336
Ratio: 6,409
Раздал: 11,55 TB
Поблагодарили: 11022
100%
Цирк дю Солей: Сказочный мир в 3D / Cirque du Soleil: Worlds Away 3D (2012) BDRip [Вертикальная анаморфная стереопара]
Жанр: Фэнтези, Мюзикл, Цирк

Описание:
Удивительная история двух влюбленных, которых разлучила судьба, по мотивам лучших шоу Cirque du Soleil. Им придется пройти через многое, чтобы снова быть вместе…

Режиссер: Эндрю Адамсон / Andrew Adamson
Актеры: Эрика Линц, Игорь Зарипов, Лутс Халбхюбнер, Джон Кларк, Даллас Барнетт, Таня Дрюери, Сара Хуболт, Аскья Мэйбери, Дэмиен Гордон, Зэк Бриклэнд, Ирен Год, ...

Продолжительность: 01:31:12
Перевод: Отсутствует (необязателен)



Дата мировой премьеры: 20 октября 2012
Дата российской премьеры: 27 декабря 2012
Дата выхода DVD релиза: 15 июня 2013

Видеокодек: MPEG-4 AVC/H.264
Битрейт видео: ~10,9 Мбит/сек
Размер кадра: 1920х1080p
Качество видео: BDRip 3D (Ash61) [Вертикальная анаморфная стереопара]
Аудиокодек: Английский / AC3 / 5.1 ch /
Битрейт аудио: 640 Кбит/сек
Фильм включает в себя действия из семи шоу Цирка дю Солей, демонстрировавшихся в Лас-Вегасе в 2011 году: O, Mystere, Ka, Love, Zumanity, Viva Elvis и Criss Angel Believe.

Каждая из частей выступления была снята на сценах театров Лас-Вегаса, где, собственно, и проходили шоу. «О» — в театре О в Белладжио, «Ka» — в театре Ka в MGM Grand, «Love» — в театре Love в Mirage, «Mystere» — в театре Mystere в Treasure Island, «Zumanity» — в театре Zumanity в New York-New York, «Viva Elvis» — в театре Aria и «Criss Angel Believe» — в театре отеля Luxor.
Скриншоты:


Общее
Уникальный идентификатор : 249215751668359124419288279195512255745 (0xBB7D35374D90877D8B827E9B59D0B501)
Полное имя : F:\ГОТОВО\CirqueDuSoleil.WorldsAway(3D)2012.halfOU(Ash61)Eng.mkv
Формат : Matroska
Версия формата : Version 2
Размер файла : 7,50 Гбайт
Продолжительность : 1 ч. 31 м.
Общий поток : 11,8 Мбит/сек
Название фильма : Cirque du Soleil: Worlds Away (3D) 2012 (by Ash61)
Дата кодирования : UTC 2013-03-08 21:44:13
Программа кодирования : mkvmerge v5.8.0 ('No Sleep / Pillow') built on Sep 2 2012 15:37:04
Библиотека кодирования : libebml v1.2.3 + libmatroska v1.3.0

Видео
Идентификатор : 1
Формат : AVC
Формат/Информация : Advanced Video Codec
Профиль формата : High@L4.1
Параметр CABAC формата : Да
Параметр ReFrames формата : 4 кадра
Идентификатор кодека : V_MPEG4/ISO/AVC
Продолжительность : 1 ч. 31 м.
Битрейт : 10,9 Мбит/сек
Ширина : 1920 пикселей
Высота : 1080 пикселей
Соотношение сторон : 16:9
Режим частоты кадров : Постоянный
Частота кадров : 23,976 кадра/сек
Цветовое пространство : YUV
Субдискретизация насыщенности : 4:2:0
Битовая глубина : 8 бит
Тип развёртки : Прогрессивная
Бит/(Пиксели*Кадры) : 0.219
Размер потока : 6,95 Гбайт (93%)
Заголовок : BDrip by Ash61
Библиотека кодирования : x264 core 129 r2245 bc13772
Настройки программы : cabac=1 / ref=4 / deblock=1:-3:-3 / analyse=0x3:0x113 / me=umh / subme=9 / psy=1 / psy_rd=1.00:0.15 / mixed_ref=1 / me_range=32 / chroma_me=1 / trellis=2 / 8x8dct=1 / cqm=0 / deadzone=21,11 / fast_pskip=1 / chroma_qp_offset=-3 / threads=12 / lookahead_threads=2 / sliced_threads=0 / nr=0 / decimate=1 / interlaced=0 / bluray_compat=0 / constrained_intra=0 / bframes=7 / b_pyramid=2 / b_adapt=2 / b_bias=0 / direct=3 / weightb=1 / open_gop=0 / weightp=2 / keyint=250 / keyint_min=23 / scenecut=40 / intra_refresh=0 / rc_lookahead=60 / rc=crf / mbtree=1 / crf=17.0 / qcomp=0.70 / qpmin=0 / qpmax=69 / qpstep=4 / vbv_maxrate=40000 / vbv_bufsize=30000 / crf_max=0.0 / nal_hrd=none / frame-packing=4 / ip_ratio=1.40 / aq=1:0.70
Язык : English
Default : Да
Forced : Нет

Аудио
Идентификатор : 2
Формат : AC-3
Формат/Информация : Audio Coding 3
Расширение режима : CM (complete main)
Параметр Endianness формата : Big
Идентификатор кодека : A_AC3
Продолжительность : 1 ч. 31 м.
Вид битрейта : Постоянный
Битрейт : 640 Кбит/сек
Каналы : 6 каналов
Расположение каналов : Front: L C R, Side: L R, LFE
Частота : 48,0 КГц
Битовая глубина : 16 бит
Метод сжатия : С потерями
Размер потока : 418 Мбайт (5%)
Заголовок : Original
Язык : English
Default : Да
Forced : Нет

Меню
00:00:00.000 : :1
00:07:01.921 : :2
00:14:47.678 : :3
00:18:59.138 : :4
00:28:03.473 : :5
00:37:52.187 : :6
00:44:06.602 : :7
00:46:47.263 : :8
00:51:06.563 : :9
00:55:44.758 : :10
00:58:59.953 : :11
01:03:59.836 : :12
01:11:15.229 : :13
01:20:49.845 : :14
Время раздачи: с 9:00 до 21:00 по МСК
[NNM-Club.ru]_CirqueDuSoleil.WorldsAway(3D)2012.halfOU(Ash61)Eng.mkv.torrent
 Торрент: Платиновая раздача  Зарегистрирован
 
Скачать


Примагнититься
 Зарегистрирован:   10 Мар 2013 23:30:18
 Размер:   7,5 GB  (
 Рейтинг:   4,8 (Голосов: 62)
 Поблагодарили:   266
 Проверка:   Оформление проверено модератором 10 Мар 2013 23:46:59
Как cкачать  ·  Как раздать  ·  Правильно оформить  ·  Поднять ратио!  
Нафаня46
Стаж: 7 лет 1 мес.
Сообщений: 107
Ratio: 8,788
100%
Спасибо, очень интересно!
asq12
Стаж: 8 лет 11 мес.
Сообщений: 1
Ratio: 6,042
0.26%
ukraine.gif
хочется увидеть , а без Вас никак. раздайте немного а там гляди и покатится
VIKONTIK i K
Стаж: 8 лет 9 мес.
Сообщений: 205
Ratio: 33,219
Раздал: 6,759 TB
100%
Откуда: Южная Пальмира
ukraine.gif
Качаю - раздаю...

_________________
У меня нет всего, что я люблю, но я люблю все, что у меня есть!
Показать сообщения:   
Начать новую тему   Ответить на тему    Торрент-трекер NNM-Club -> Театр и Музыкальное видео -> Опера, Балет, Мюзиклы Часовой пояс: GMT + 3
Страницы:   Пред.  1, 2
Страница 2 из 2