Классический форум-трекер
canvas not supported
Нас вместе: 4 094 004

Классический Доктор Кто (1-7 докторы) / Doctor Who Classic (1963-1989) DVDRip [147] [EN/RU SUB]


Страницы:   Пред.  1, 2 
 
RSS
Начать новую тему   Ответить на тему    Торрент-трекер NNM-Club -> Зарубежные сериалы -> Сериалы без перевода
Автор Сообщение
Ahmad_Kasseer ®
Стаж: 7 лет 3 мес.
Сообщений: 300
Ratio: 10K
Поблагодарили: 7086
100%
Откуда: Бинт Джубайль
lebanon.gif
Классический Доктор Кто (1-7 докторы) / Doctor Who Classic (1963-1989) DVDRip [147] [EN/RU SUB]
Год выпуска: 1963-1989
Жанр: Фантастика

Перевод: Субтитрами
Язык: Английский
Авторы перевода: Dark Mercury Doctor Who, petrol_08, aka 62CO, DiJiTaLiST, yuliasha, Хозяин, Чемпион, Voltor aka Николай Волков (1 Доктор) petrol_08, 6.2.С.О., Dark Mercury, Волков Николай aka Voltor, Чемпион (2 доктор) 6.2.С.О, Fly in blue, Хозяин, Dark Mercury, s_witch. (3 доктор), Magestic, faltar, Dark Mercury (4 доктор), Regis, Garic21, faltar, Lucife (5 доктор) petrol_08 (7 доктор)
Вид субтитров: Отдельным файлом
Язык субтитров: Русские



Режиссер: Варис Хусейн, Моррис Бэрри, Дерек Мартинус, Кристофер Бэрри, Фиона Кьюмминг, Питер Моффат, Эндрю Морган
Актеры: Уильям Хартнелл, Патрик Тротон, Джон Пиртви, Том Бейкер, Питер Дэвисон, Колин Бейкер, Сильвестер Маккой

Описание фильма:
Доктор Кто (Doctor Who) — британский научно-фантастический телесериал компании Би-Би-Си о загадочном путешественнике во времени, известном как «Доктор», который вместе со своими спутниками исследует время и пространство, решая различные проблемы и борясь со злом.

ВНИМАНИЕ. НЕКОТОРЫЕ СЕРИИ ПЕРВОГО И ВТОРОГО ДОКТОРА БЫЛИ УТЕРЯНЫ, ПОЭТОМУ НЕКОТОРЫЕ ИЗ НИХ ОТСУТСТВУЮТ, А НЕКОТОРЫЕ БЫЛИ РЕКОНСТРУИРОВАНЫ В ВИДЕ СЛАЙДОВ С СУБТИТРАМИ (Не все, а некоторые). Начиная с Третьего Доктора в наличии ВСЕ серии, без реконструкций

В виду маленького жёсткого диска и необходимости поддержания других релизов просьба не уходить с раздачи Если кого из авторов перевода не указал, извиняйте - пишите в личку с ссылкой на подтверждение, что вы учавствовали в переводе и я добавлю ваш ник в первый пост.

Все релизы сериала

Продолжительность: 147 серий по ~00:24:00
Качество видео: DVDRip Видеокодек: DivX 3 (1,3,5,6), DivX 5 (2,4,7 доктор)
Битрейт видео: ~1892kbps (1 доктор), ~850kbps (2 доктор), ~1892kbps (3 доктор), ~1832kbps (4 доктор), ~1661kbps (5 доктор), ~1880kbps (6 Доктор), ~1780kbps (7 доктор)
Размер кадра: 513x384 (1-3,5,6 Доктор), 640x480 (4,7 доктор)
Аудиокодек: MP3
Битрейт аудио: 128kbps (4 доктор), 96kbps (1,3,5,6 доктор), 192kbps (2,7 доктор)
Format : AVI
Format/Info : Audio Video Interleave
File size : 335 MiB
Duration : 23mn 23s
Overall bit rate : 2 000 Kbps
Writing library : VirtualDub build 12903/release

Video
ID : 0
Format : MPEG-4 Visual
Codec ID : DIV3
Codec ID/Hint : DivX 3 Low
Duration : 23mn 23s
Bit rate : 1 892 Kbps
Width : 512 pixels
Height : 384 pixels
Display aspect ratio : 4:3
Frame rate : 29.970 fps
Color space : YUV
Chroma subsampling : 4:2:0
Bit depth : 8 bits
Compression mode : Lossy
Bits/(Pixel*Frame) : 0.321
Stream size : 317 MiB (95%)

Audio
ID : 1
Format : MPEG Audio
Format version : Version 1
Format profile : Layer 3
Mode : Joint stereo
Mode extension : Intensity Stereo + MS Stereo
Codec ID : 55
Codec ID/Hint : MP3
Duration : 23mn 23s
Bit rate mode : Constant
Bit rate : 96.0 Kbps
Channel(s) : 2 channels
Sampling rate : 44.1 KHz
Compression mode : Lossy
Stream size : 16.0 MiB (5%)
Alignment : Split accross interleaves
Interleave, duration : 33 ms (1.00 video frame)
Interleave, preload duration : 468 ms
Format : AVI
Format/Info : Audio Video Interleave
File size : 179 MiB
Duration : 23mn 46s
Overall bit rate : 1 055 Kbps

Video
ID : 0
Format : MPEG-4 Visual
Format settings, BVOP : 1
Format settings, QPel : No
Format settings, GMC : No warppoints
Format settings, Matrix : Default (H.263)
Muxing mode : Packed bitstream
Codec ID : DX50
Codec ID/Hint : DivX 5
Duration : 23mn 46s
Bit rate : 850 Kbps
Width : 512 pixels
Height : 384 pixels
Display aspect ratio : 4:3
Frame rate : 25.000 fps
Color space : YUV
Chroma subsampling : 4:2:0
Bit depth : 8 bits
Scan type : Progressive
Compression mode : Lossy
Bits/(Pixel*Frame) : 0.173
Stream size : 145 MiB (81%)
Writing library : DivX 5.1.1 (Maupiti) (UTC 2003-11-19)

Audio
ID : 1
Format : MPEG Audio
Format version : Version 1
Format profile : Layer 2
Codec ID : 50
Duration : 23mn 45s
Bit rate mode : Constant
Bit rate : 192 Kbps
Channel(s) : 2 channels
Sampling rate : 48.0 KHz
Compression mode : Lossy
Stream size : 32.6 MiB (18%)
Alignment : Aligned on interleaves
Interleave, duration : 24 ms (0.60 video frame)
Interleave, preload duration : 144 ms
Title : Audio Stream
Format : AVI
Format/Info : Audio Video Interleave
File size : 339 MiB
Duration : 23mn 40s
Overall bit rate : 2 000 Kbps
Writing library : VirtualDub build 13130/release

Video
ID : 0
Format : MPEG-4 Visual
Codec ID : DIV3
Codec ID/Hint : DivX 3 Low
Duration : 23mn 40s
Bit rate : 1 892 Kbps
Width : 512 pixels
Height : 384 pixels
Display aspect ratio : 4:3
Frame rate : 29.970 fps
Color space : YUV
Chroma subsampling : 4:2:0
Bit depth : 8 bits
Compression mode : Lossy
Bits/(Pixel*Frame) : 0.321
Stream size : 320 MiB (95%)

Audio
ID : 1
Format : MPEG Audio
Format version : Version 1
Format profile : Layer 3
Mode : Joint stereo
Mode extension : Intensity Stereo + MS Stereo
Codec ID : 55
Codec ID/Hint : MP3
Duration : 23mn 40s
Bit rate mode : Constant
Bit rate : 96.0 Kbps
Channel(s) : 2 channels
Sampling rate : 44.1 KHz
Compression mode : Lossy
Stream size : 16.2 MiB (5%)
Alignment : Split accross interleaves
Interleave, duration : 33 ms (1.00 video frame)
Interleave, preload duration : 473 ms
Format : AVI
Format/Info : Audio Video Interleave
File size : 341 MiB
Duration : 24mn 12s
Overall bit rate : 1 972 Kbps
Writing library : VirtualDub-MPEG2-AC3 build 16302/release

Video
ID : 0
Format : MPEG-4 Visual
Format settings, BVOP : No
Format settings, QPel : No
Format settings, GMC : No warppoints
Format settings, Matrix : Default (H.263)
Codec ID : DX50
Codec ID/Hint : DivX 5
Duration : 24mn 12s
Bit rate : 1 832 Kbps
Width : 640 pixels
Height : 480 pixels
Display aspect ratio : 4:3
Frame rate : 29.970 fps
Color space : YUV
Chroma subsampling : 4:2:0
Bit depth : 8 bits
Scan type : Progressive
Compression mode : Lossy
Bits/(Pixel*Frame) : 0.199
Stream size : 317 MiB (93%)
Writing library : DivX 5.1.1 (Maupiti) (UTC 2003-11-19)

Audio
ID : 1
Format : MPEG Audio
Format version : Version 1
Format profile : Layer 3
Mode : Joint stereo
Codec ID : 55
Codec ID/Hint : MP3
Duration : 24mn 12s
Bit rate mode : Constant
Bit rate : 128 Kbps
Channel(s) : 2 channels
Sampling rate : 44.1 KHz
Compression mode : Lossy
Stream size : 22.2 MiB (6%)
Alignment : Split accross interleaves
Interleave, duration : 33 ms (1.00 video frame)
Interleave, preload duration : 500 ms
Format : AVI
Format/Info : Audio Video Interleave
File size : 307 MiB
Duration : 24mn 16s
Overall bit rate : 1 769 Kbps
Writing library : VirtualDub build 13110/release

Video
ID : 0
Format : MPEG-4 Visual
Codec ID : DIV3
Codec ID/Hint : DivX 3 Low
Duration : 24mn 16s
Bit rate : 1 661 Kbps
Width : 512 pixels
Height : 384 pixels
Display aspect ratio : 4:3
Frame rate : 29.970 fps
Color space : YUV
Chroma subsampling : 4:2:0
Bit depth : 8 bits
Compression mode : Lossy
Bits/(Pixel*Frame) : 0.282
Stream size : 288 MiB (94%)

Audio
ID : 1
Format : MPEG Audio
Format version : Version 1
Format profile : Layer 3
Mode : Joint stereo
Mode extension : Intensity Stereo + MS Stereo
Codec ID : 55
Codec ID/Hint : MP3
Duration : 24mn 16s
Bit rate mode : Constant
Bit rate : 96.0 Kbps
Channel(s) : 2 channels
Sampling rate : 44.1 KHz
Compression mode : Lossy
Stream size : 16.6 MiB (5%)
Alignment : Split accross interleaves
Interleave, duration : 33 ms (1.00 video frame)
Interleave, preload duration : 462 ms
Format : AVI
Format/Info : Audio Video Interleave
File size : 352 MiB
Duration : 24mn 44s
Overall bit rate : 1 988 Kbps
Writing library : VirtualDub build 12667/release

Video
ID : 0
Format : MPEG-4 Visual
Codec ID : DIV3
Codec ID/Hint : DivX 3 Low
Duration : 24mn 44s
Bit rate : 1 880 Kbps
Width : 512 pixels
Height : 384 pixels
Display aspect ratio : 4:3
Frame rate : 29.970 fps
Color space : YUV
Chroma subsampling : 4:2:0
Bit depth : 8 bits
Compression mode : Lossy
Bits/(Pixel*Frame) : 0.319
Stream size : 333 MiB (95%)

Audio
ID : 1
Format : MPEG Audio
Format version : Version 1
Format profile : Layer 3
Mode : Joint stereo
Mode extension : Intensity Stereo + MS Stereo
Codec ID : 55
Codec ID/Hint : MP3
Duration : 24mn 44s
Bit rate mode : Constant
Bit rate : 96.0 Kbps
Channel(s) : 2 channels
Sampling rate : 44.1 KHz
Compression mode : Lossy
Stream size : 17.0 MiB (5%)
Alignment : Split accross interleaves
Interleave, duration : 33 ms (1.00 video frame)
Interleave, preload duration : 463 ms
Format : AVI
Format/Info : Audio Video Interleave
File size : 350 MiB
Duration : 24mn 36s
Overall bit rate : 1 986 Kbps

Video
ID : 0
Format : MPEG-4 Visual
Format settings, BVOP : 1
Format settings, QPel : No
Format settings, GMC : No warppoints
Format settings, Matrix : Default (H.263)
Muxing mode : Packed bitstream
Codec ID : DX50
Codec ID/Hint : DivX 5
Duration : 24mn 36s
Bit rate : 1 787 Kbps
Width : 640 pixels
Height : 480 pixels
Display aspect ratio : 4:3
Frame rate : 25.000 fps
Color space : YUV
Chroma subsampling : 4:2:0
Bit depth : 8 bits
Scan type : Progressive
Compression mode : Lossy
Bits/(Pixel*Frame) : 0.233
Stream size : 315 MiB (90%)
Writing library : DivX 5.2.1 (WaffleDay) (UTC 2004-09-08)

Audio
ID : 1
Format : MPEG Audio
Format version : Version 1
Format profile : Layer 3
Codec ID : 55
Codec ID/Hint : MP3
Duration : 24mn 36s
Bit rate mode : Constant
Bit rate : 192 Kbps
Channel(s) : 2 channels
Sampling rate : 44.1 KHz
Compression mode : Lossy
Stream size : 33.8 MiB (10%)
Alignment : Split accross interleaves
Interleave, duration : 720 ms (17.99 video frames)
Скриншоты:


Время раздачи: 24/7. Иногда (крайне редко) только ночью.
[NNM-Club.ru]_Doctor Who Classic.torrent
 Торрент: Платиновая раздача  Зарегистрирован
 
Скачать


 Зарегистрирован:   11 Мар 2013 15:30:41
 Размер:   202 GB  (
 Рейтинг:   4,8 (Голосов: 164)
 Поблагодарили:   413
 Проверка:   Оформление проверено модератором 11 Мар 2013 18:21:16
Как cкачать  ·  Как раздать  ·  Правильно оформить  ·  Поднять ратио!  
orifi
Стаж: 9 лет 4 мес.
Сообщений: 2
Ratio: 18,339
0%
russia.gif
а классический доктор только с субтитрами, есть где-нибудь с озвучкой русской?
PooTeen
Стаж: 7 лет 4 мес.
Сообщений: 1
Ratio: 1831,368
100%
Ребятушки!!! Раздайте кто-нибудь 6-го Доктора!
диланщик
Стаж: 8 лет 2 мес.
Сообщений: 52
Ratio: 5,517
100%
Встаньте кто-нибудь на раздачу пожалуйста
Kotyach
Стаж: 4 года 8 мес.
Сообщений: 1
Ratio: 85,507
100%
Автор, мир твоему дому! Найти всех классических Докторов в одной раздаче - счастье, о котором я не могла и мечтать ))
OSSTERR
Стаж: 5 лет 7 мес.
Сообщений: 1
Ratio: 0,39
13.04%
Ahmad_Kasseer
Могли бы вы встать на раздачу, пожалуйста.
nnmz88m
Стаж: 2 года 7 мес.
Сообщений: 1
100%
При попытке добавить скачанный торрент, qbittorrent сообщает: unexpected end of file in bencoded string
Имею все фалы из этой раздачи и хотел присоединиться, но чего-то сломалось.
sashokmc
Стаж: 7 лет 6 мес.
Сообщений: 50
Ratio: 1397,319
100%
Всё отлично! Только я перегнал ffmpeg в mkv и вшил субтитры для просмотра в телевизоре.
Egg
Стаж: 9 лет 4 мес.
Сообщений: 1930
Ratio: 13,813
Поблагодарили: 1284
100%
russia.gif
Четвертый Доктор самый крутой из классических докторов)

_________________
Раньше при встрече снимали шляпу. Сейчас достают из уха наушник. В знак особого уважения достают оба.
BoltunKid
Стаж: 7 лет 2 мес.
Сообщений: 2
Ratio: 7,544
0%
Matt_0 писал(а): Перейти к сообщению
Спасибо большое, больше нигде не нашел классику с субтитрами. Добра автору :з

Да ладно... Классика с сабами на известный трекер есть с 2011 года

По сабжу. The Web of Fear (кроме одного эпизода) и The Enemy of the World уже есть в нормальном виде. Они были найдены пару лет назад
EU_ixix
Стаж: 7 лет 1 мес.
Сообщений: 17
Ratio: 12,96
12.36%
ukraine.gif
Насколько смогу поддержу раздачу
Fazer22
Стаж: 10 лет 1 мес.
Сообщений: 10
Ratio: 31,579
Раздал: 4,702 TB
54.84%
russia.gif
Спасибо релизеру. Очень хорошая и качественная игра актеров.
Показать сообщения:   
Начать новую тему   Ответить на тему    Торрент-трекер NNM-Club -> Зарубежные сериалы -> Сериалы без перевода Часовой пояс: GMT + 3
Страницы:   Пред.  1, 2
Страница 2 из 2