Классический форум-трекер
canvas not supported
Нас вместе: 4 103 601

Doubutsu Takarajima / Animal Treasure Island / Звериный Остров Сокровищ [1971, MV] DVDRip raw


 
 
RSS
Начать новую тему   Ответить на тему    Торрент-трекер NNM-Club -> Аниме с субтитрами -> Аниме (SD)
Автор Сообщение
loki ®
Стаж: 9 лет 2 мес.
Сообщений: 4729
Ratio: 62,856
Поблагодарили: 37390
100%
Откуда: Днепр
roody.gif
Doubutsu Takarajima
Animal Treasure Island
Звериный Остров Сокровищ

Жанр: приключения, фэнтези
Тип: полнометражный фильм
Продолжительность: 78 мин.
Дата премьеры / период выхода: 20.03.1971
Производство/студия:
Автор оригинала: Роберт Льюис Стивенсон
Режиссер: Икэда Хироси
Сценарий: Иидзима Такаси, Икэда Хироси
Качество видео: DVDRip
Контейнер: MKV
Видео: DivX (8 bits) Гайд для MPC-HC
Битрейт видео: ~1200 Kbps; 23.976 fps
Размер кадра: 704x304 (2,35:1)
Аудио: JAP, MP3, 48.0 KHz, 192 Kbps, 2ch
Тип субтитров: Raw
Субтитры: RUS SRT Targon (ext)
Описание:
Полнометражный анимационный фильм по мотивам одноименного романа Роберта Льюиса Стивенсона. Очень вольная (все пираты здесь превратились в животных), веселая, яркая киносказка, такая же увлекательная, как и самая популярная в мире приключенческая книжка. К мальчику Джиму случайно попала карта, на которой обозначен остров с несметными сокровищами капитана Флинта. Он вместе со своим верным другом-мышонком отправляется в плавание. Но вскоре смельчаков настигают пираты. После неравной схватки друзья терпят поражение, и морские разбойники продают их работорговцу. В тюрьме они знакомятся с пленницей Кэти, внучкой капитана Флинта. Теперь их трое, и вместе они способны не только вырваться из застенков, но и преодолеть самые опасные препятствия на пути к богатству...
Одна из первых, в мире анимации, попыток экранизации известного произведения Роберта Льюиса Стивенсона «Остров Сокровищ», детская интерпретация с персонажами-животными.
Общее
Уникальный идентификатор : 189722628081668956467614286796844692743 (0x8EBB3FC212152D619E2EBE3A890FF507)
Полное имя : Doubutsu_Takarajima.1971\Doubutsu_Takarajima_Movie.mkv
Формат : Matroska
Версия формата : Version 4 / Version 2
Размер файла : 756 Мбайт
Продолжительность : 1 ч. 18 м.
Общий поток : 1346 Кбит/сек
Дата кодирования : UTC 2010-02-22 21:41:31
Программа кодирования : mkvmerge v5.8.0 ('No Sleep / Pillow') built on Sep 30 2012 10:57:14
Библиотека кодирования : libebml v1.3.0 + libmatroska v1.4.0

Видео
Идентификатор : 1
Формат : MPEG-4 Visual
Параметр BVOP формата : Да
Параметр QPel формата : Нет
Параметр GMC формата : Без точки перехода
Параметр матрицы формата : Default (H.263)
Идентификатор кодека : V_MS/VFW/FOURCC / DX50
Идентификатор кодека/Подсказка : DivX 5
Продолжительность : 1 ч. 18 м.
Битрейт : 1192 Кбит/сек
Ширина : 704 пикселя
Высота : 304 пикселя
Соотношение сторон : 2,35:1
Режим частоты кадров : Постоянный
Частота кадров : 23,976 кадра/сек
Цветовое пространство : YUV
Субдискретизация насыщенности : 4:2:0
Битовая глубина : 8 бит
Тип развёртки : Прогрессивная
Метод сжатия : С потерями
Бит/(Пиксели*Кадры) : 0.232
Размер потока : 669 Мбайт (89%)
Библиотека кодирования : DivX 6.8.5 (UTC 2009-08-20)
Default : Да
Forced : Нет

Аудио
Идентификатор : 2
Формат : MPEG Audio
Версия формата : Version 1
Профиль формата : Layer 3
Режим : Joint stereo
Расширение режима : MS Stereo
Режим смешивания : Header stripping
Идентификатор кодека : A_MPEG/L3
Идентификатор кодека/Подсказка : MP3
Продолжительность : 1 ч. 18 м.
Вид битрейта : Постоянный
Битрейт : 128 Кбит/сек
Каналы : 2 канала
Частота : 48,0 КГц
Метод сжатия : С потерями
Размер потока : 71,8 Мбайт (10%)
Библиотека кодирования : LAME3.97
Настройки программы : -m j -V 4 -q 2 -lowpass 17 -b 128
Default : Да
Forced : Нет
Информационные ссылки: Official webpage || ANN || AniDB || MAL || World Art



Время раздачи: 24/7
[NNM-Club.ru]_Doubutsu_Takarajima.1971.torrent
 Торрент: Платиновая раздача  Зарегистрирован
 
Скачать


Примагнититься
 Зарегистрирован:   28 Мар 2013 21:32:33
 Размер:   756 MB  (
 Рейтинг:   4,6 (Голосов: 21)
 Поблагодарили:   36
 Проверка:   Оформление проверено модератором 28 Мар 2013 21:44:29
Как cкачать  ·  Как раздать  ·  Правильно оформить  ·  Поднять ратио!  
kot_bergamot
Стаж: 9 лет 6 мес.
Сообщений: 106
Ratio: 4,665
Поблагодарили: 54
47.88%
А в русской озвучке нет? хотел ребёнку включить бы
Ruroni-SPb
 
Стаж: 6 лет 10 мес.
Сообщений: 57
Ratio: 219,271
4.23%
Откуда: SPb
ussr.gif
kot_bergamot писал(а): Перейти к сообщению
А в русской озвучке нет?
Существует советский дубляж, дубляж Реанимедиа для Cinema Prestige и закадровый Алекс Килька для DVD магазина Сузаку. Здесь видимо релиз для отаку, только оригинальный трек.
Показать сообщения:   
Начать новую тему   Ответить на тему    Торрент-трекер NNM-Club -> Аниме с субтитрами -> Аниме (SD) Часовой пояс: GMT + 3
Страница 1 из 1