Классический форум-трекер
canvas not supported
Нас вместе: 4 133 937

Оборонная промышленность. Как живут сегодня оборонные заводы России. (2013) TVRip


 
 
RSS
Начать новую тему   Ответить на тему    Торрент-трекер NNM-Club -> Архив торрентов -> Архив Документалистики и TV
Автор Сообщение
fictionss ®
Стаж: 10 лет 5 мес.
Сообщений: 108
Ratio: 3,387
Поблагодарили: 3397
100%
ussr.gif
Момент истины. Оборонная промышленность. Как живут сегодня оборонные заводы России. (01.04.2013) TVRip
Название: Оборонная промышленность. Как живут сегодня оборонные заводы России.

Режиссер / Телекомпания: ООО "Стратегия века"
Год выпуска: 2013
Жанр: Документальный, исторический
Ведущий: Андрей Караулов

Описание:
«Момент истины» — авторская программа журналиста Андрея Караулова, в которой известные писатели, артисты, деятели культуры и политики, специалисты из разных областей обсуждают злободневные для России темы: коррупция в высших эшелонах власти, вырождение нации, наркомания среди молодежи, падение рождаемости и многие другие.
В этой программе речь пойдет об отечественной оборонной промышленности, как живут сегодня оборонные заводы России, уничтоженные в 90-ые годы. Участники передачи расскажут кто и как их разваливал. Впервые будет озвучен секретный доклад Билла Клинтона об уничтожении американцами российского ВПК. Будут даны разъяснения кому было выгодно производить китайские велосипеды вместо подводных лодок и продавать по цене 1 (один) доллар целые корабли, зачем наши танки и пушки продаются в третьи страны, а также роль и место "господ" Гайдара и Чубайса в крахе Российского ВПК. Ведущий поднимет вопрос имеют ли подобные преступления срок давности и стоит ли сейчас виновных лиц привлечь в соответствии с законом к ответственности.

Участники: Александр Медведюк, Владимир Жеребенков, Виктор Ивантер, Александр Ципко, Борис Резник, Александр Руцкой, Адам Имадаев, Гавриил Попов, Андрей Угланов, Лев Гущин, Владимир Бурматов, Никита Кричевский, Анатолий Куликов, Анатолий Кучерена, Шод Муладжанов, Сергей Боев

Продолжительность: 00:48:26

Видеокодек: MPEG-4
Битрейт видео: ~777 kb/s
Размер кадра: 640 x 480
Качество видео: TVRip
Аудиокодек: MP2, 2 ch
Битрейт аудио: 64 kb/s CBR
Общее
Уникальный идентификатор : 56837370231522587655975514758209449905 (0x2AC27AB54CAE130F6B798721EFF5AFB1)
Полное имя : H:\Видео-закачка\Телевизионные передачи\Исторические\Момент истины\Момент истины 01.04.2013.mkv
Формат : Matroska
Версия формата : Version 2
Размер файла : 297 Мбайт
Продолжительность : 48 м.
Общий поток : 858 Кбит/сек
Программа кодирования : Lavf52.50.0
Библиотека кодирования : Lavf52.50.0

Видео
Идентификатор : 1
Формат : MPEG-4 Visual
Идентификатор кодека : V_MPEG4/ISO/ASP
Идентификатор кодека/Информация : Advanced Simple Profile
Продолжительность : 48 м.
Битрейт : 777 Кбит/сек
Ширина : 640 пикселей
Высота : 480 пикселей
Соотношение сторон : 4:3
Режим частоты кадров : Постоянный
Частота кадров : 25,000 кадров/сек
Метод сжатия : С потерями
Бит/(Пиксели*Кадры) : 0.101
Размер потока : 269 Мбайт (91%)
Default : Да
Forced : Нет

Аудио
Идентификатор : 2
Формат : MPEG Audio
Версия формата : Version 1
Профиль формата : Layer 2
Идентификатор кодека : A_MPEG/L2
Идентификатор кодека/Подсказка : MP2
Продолжительность : 48 м.
Вид битрейта : Постоянный
Битрейт : 64,0 Кбит/сек
Каналы : 2 канала
Частота : 44,1 КГц
Метод сжатия : С потерями
Задержка видео : -40 мс.
Размер потока : 22,2 Мбайт (7%)
Default : Да
Forced : Нет
Скриншоты:



Время раздачи: С 21:00 до 24:00

Мои раздачи
[NNM-Club.ru]_Moment istinyi 01.04.2013.mkv.torrent
 Торрент:   Зарегистрирован
 
Зарегистрируйтесь и скачайте торрент!
11,9 KB

Примагнититься
 Зарегистрирован:   06 Апр 2013 14:56:48
 Размер:   297 MB  (
 Рейтинг:   4,4 (Голосов: 20)
 Поблагодарили:   78
 Проверка:   Оформление проверено модератором 06 Апр 2013 15:48:37
Как cкачать  ·  Как раздать  ·  Правильно оформить  ·  Поднять ратио!  
CTAPOBEPOB
Стаж: 10 лет 1 мес.
Сообщений: 594
Ratio: 10,41
Поблагодарили: 87
100%
ussr.gif
Все всё знают, но [ничего] не делают.
Arsss
Стаж: 10 лет
Сообщений: 558
Ratio: 40,329
100%
russia.gif
CTAPOBEPOB писал(а): Перейти к сообщению
Все всё знают, но [ничего] не делают.

А кто сказал, что власть поменялась?

Лет пять назад читал предсказание. что последнее разрушение России будет самым страшным и будет проходить под патриотическими лозунгами.
Miramaster
 
Стаж: 9 лет 2 мес.
Сообщений: 70
Ratio: 51,404
100%
Откуда: LOKSA
estonia.gif
Чему быть того не миновать! О нет
Время разбрасывать камни, и время камни собирать.
Жалко Россию, и простой народ.
Но я вообще за диктатуру! :D
xploser
Стаж: 11 лет 1 мес.
Сообщений: 617
Ratio: 16,302
Поблагодарили: 176
13.97%
чего все разнылись ? у ВПК сейчас второе рождение . в войска начали поступать Ми28 , Ка52 , Су30 , 34 ,35 , флот начался пополнятся фрегатами и корветами 20380 и 22350 , в РВСН поступают ярсы , проектирует абсолютно новый РК Авангард , в танках почти готова Армата , осень закрытый показ , уже практически готов 3й! Борей , строят Ясени .
да , с СССР не сравнить , но нынешние получили заводы не от СССР , а вот от этих млять реформаторов , когда от заводов ни [однако] кроме стен не осталось , даже шифер и стекла повытаскивали .
fictionss ®
Стаж: 10 лет 5 мес.
Сообщений: 108
Ratio: 3,387
Поблагодарили: 3397
100%
ussr.gif
xploser писал(а): Перейти к сообщению
чего все разнылись ? у ВПК сейчас второе рождение . в войска начали поступать Ми28 , Ка52 , Су30 , 34 ,35 , флот начался пополнятся фрегатами и корветами 20380 и 22350 , в РВСН поступают ярсы , проектирует абсолютно новый РК Авангард , в танках почти готова Армата , осень закрытый показ , уже практически готов 3й! Борей , строят Ясени .
да , с СССР не сравнить , но нынешние получили заводы не от СССР , а вот от этих млять реформаторов , когда от заводов ни [однако] кроме стен не осталось , даже шифер и стекла повытаскивали .


Поддерживаю! Восстановление идет!
Однако, наверное, было бы правильным привлечь к ответственности людей, причастных к продаже судов за 1 доллар, авианосца с ночинкой, а также иным коммерческим "проектам", т.к. по сути, это как сказал ведущий - предательство и измена родине в чистом виде!

Добавлено спустя 44 минуты 44 секунды:

Кстати, вот раздачи про складывающуюся напряженную ситуацию в Северной Корее! Очень интересно и достаточно обоснованно все излагается!

Тайны мира с Анной Чепман. Разоблачение. "Железный занавес" (2013) TVRip

_________________
Когда я могу сидеть - я никогда не стою!
Когда я могу лежать - я никогда не сижу!
Alex bob
 
Стаж: 8 лет 6 мес.
Сообщений: 47
Ratio: 85,785
100%
russia.gif
А Чубайса с его командой на кол!!! Чтобы пришел немного в чуйства.Нанотехнолог х...
Топик был перенесен из форума Тележурналистика в форум Архив Документалистики и TV

Причина переноса: Отсутствие сидов более 3 месяцев.

Исправил релиз - напиши ЛС ALLic, дав ссылку на релиз.
Если нет ответа 24 часа - нажми на кнопку "Обратить внимание модераторов".
Показать сообщения:   
Начать новую тему   Ответить на тему    Торрент-трекер NNM-Club -> Архив торрентов -> Архив Документалистики и TV Часовой пояс: GMT + 3
Страница 1 из 1