Классический форум-трекер
canvas not supported
Нас вместе: 4 094 042

Битва за Чернобыль / The Battle of Chernobyl (2006) WEBRip [H.264]


 
 
RSS
Начать новую тему   Ответить на тему    Торрент-трекер NNM-Club -> Документалистика и Телепередачи -> Отечественная история
Автор Сообщение
Rhea ®
 
Стаж: 8 лет 10 мес.
Сообщений: 1319
Ratio: 8,109
Поблагодарили: 9276
100%
Откуда: Кривичи
Битва за Чернобыль / The Battle of Chernobyl (2006) WEBRip [H.264]
Русское название: Битва за Чернобыль
Оригинальное название: The Battle of Chernobyl
Режиссер: Томас Джонсон / Thomas Johnson
Год выпуска: 2006
Жанр: документальный, история

Описание:
Человечество изучает свойства радиации более 60 лет на ужасающем собственном опыте - Хиросима, Челябинск, Чернобыль. Мутации на генетическом уровне на многие поколения, неумолимый рост заболеваемости раком на многие десятилетия - это последствия "мирного" атома. Уникальные фото- и видеоматериалы. Шокирующие фотографии Игоря Костина – известного украинского фотокорреспондента, отдавшего своё здоровье, чтобы донести до людей весь ужас аварии и рассказать о ней со всей убедительностью очевидца.

Качество видео: WEB-Rip
Продолжительность: 01:32:54
Перевод: многоголосый закадровый, профессиональный

Видео: MPEG4 Video (H264), 960х544 (16:9), 3264 Kbps
Аудио: AAC LC stereo, 2ch, 48000Hz, 192 kbps
Общее
Полное имя : The.Battle.Of.Chernobyl.mp4
Формат : MPEG-4
Профиль формата : Base Media / Version 2
Идентификатор кодека : mp42
Размер файла : 2,25 Гбайт
Продолжительность : 1 ч. 32 м.
Режим общего битрейта : Переменный
Общий поток : 3460 Кбит/сек
Дата кодирования : UTC 2013-04-07 10:10:33
Дата пометки : UTC 2013-04-07 11:18:48

Видео
Идентификатор : 1
Формат : AVC
Формат/Информация : Advanced Video Codec
Профиль формата : Mаin@L3.1
Параметр CABAC формата : Да
Параметр ReFrames формата : 2 кадра
Идентификатор кодека : avc1
Идентификатор кодека/Информация : Advanced Video Coding
Продолжительность : 1 ч. 32 м.
Битрейт : 3264 Кбит/сек
Ширина : 960 пикселей
Высота : 544 пикселя
Соотношение сторон : 16:9
Режим частоты кадров : Постоянный
Частота кадров : 25,000 кадров/сек
Цветовое пространство : YUV
Субдискретизация насыщенности : 4:2:0
Битовая глубина : 8 бит
Тип развёртки : Прогрессивная
Бит/(Пиксели*Кадры) : 0.250
Размер потока : 2,12 Гбайт (94%)
Язык : English
Дата кодирования : UTC 2013-04-07 10:10:33
Дата пометки : UTC 2013-04-07 11:18:48

Аудио
Идентификатор : 2
Формат : AAC
Формат/Информация : Advanced Audio Codec
Профиль формата : LC
Идентификатор кодека : 40
Продолжительность : 1 ч. 32 м.
Битрейт : 192 Кбит/сек
Каналы : 2 канала
Расположение каналов : Front: L R
Частота : 48,0 КГц
Метод сжатия : С потерями
Задержка видео : 40 мс.
Размер потока : 128 Мбайт (6%)
Заголовок : und
Дата кодирования : UTC 2013-04-07 10:10:33
Дата пометки : UTC 2013-04-07 11:18:48

Меню
00:00:00.000 : Start
Время раздачи: 17:00 - 21:00
[NNM-Club.ru]_The.Battle.Of.Chernobyl.mp4.torrent
 Торрент: Платиновая раздача  Зарегистрирован
 
Скачать


Примагнититься
 Зарегистрирован:   08 Апр 2013 13:38:06
 Размер:   2,25 GB  (
 Рейтинг:   4,8 (Голосов: 72)
 Поблагодарили:   204
 Проверка:   Оформление проверено модератором 08 Апр 2013 16:41:27
Как cкачать  ·  Как раздать  ·  Правильно оформить  ·  Поднять ратио!  
zkilla
Стаж: 7 лет 3 мес.
Сообщений: 2
Ratio: 47,815
100%
russia.gif
После прохождения S.T.A.L.K.E.R стал интересоваться темой Чернобыля)))
vladimigerma
Стаж: 8 лет 9 мес.
Сообщений: 1023
Ratio: 28,411
100%
russia.gif
26 апреля
Rhea ®
 
Стаж: 8 лет 10 мес.
Сообщений: 1319
Ratio: 8,109
Поблагодарили: 9276
100%
Откуда: Кривичи
zkilla писал(а):
После прохождения S.T.A.L.K.E.R стал интересоваться темой Чернобыля)))
Synchronizer
Стаж: 7 лет 9 мес.
Сообщений: 372
Ratio: 8,038
Поблагодарили: 2846
66.81%
Откуда: атомная свалка
Цитата:
Человечество изучает свойства радиации более 60 лет на ужасающем собственном опыте - Хиросима, Челябинск, Чернобыль.

Челябинск - Наша версия: под грифом "секретно" - Отложенная смерть / ПО Маяк: ХДМ - Хранилище делящихся материалов (2007) TVRip
Показать сообщения:   
Начать новую тему   Ответить на тему    Торрент-трекер NNM-Club -> Документалистика и Телепередачи -> Отечественная история Часовой пояс: GMT + 3
Страница 1 из 1