Классический форум-трекер
canvas not supported
Нас вместе: 4 079 360

Юрий Гагарин. 50 лет прошло (2011) TVRip


 
 
RSS
Начать новую тему   Ответить на тему    Торрент-трекер NNM-Club -> Документалистика и Телепередачи -> Космос
Автор Сообщение
nnmclub0112 ®
Стаж: 7 лет 9 мес.
Сообщений: 3894
Ratio: 96,716
Поблагодарили: 249684
100%
Юрий Гагарин. 50 лет прошло (2011) TVRip
Название: Юрий Гагарин. 50 лет прошло

Режиссер / Телекомпания: Студия Moz@rt Production
Год выпуска: 2011
Жанр: Документальный

Описание:
Документальные съемки первого полета человека в космос.

Продолжительность: 00:02:31

Видеокодек: DivX 5
Битрейт видео: ~3494 Кбит/сек
Размер кадра: 720x540
Качество видео: TVRip
Аудиокодек: MP3, 2 ch
Битрейт аудио: 192 Кбит/сек
Общее
Полное имя : J:\nF\Докум\Юрий Гагарин - 50 лет прошло\Юрий Гагарин.50 лет прошло (2011) TVRip.avi
Формат : DivX
Формат/Информация : Hack of AVI
Размер файла : 66,8 Мбайт
Продолжительность : 2 м. 31 с.
Общий поток : 3696 Кбит/сек

Видео
Идентификатор : 0
Формат : MPEG-4 Visual
Параметр BVOP формата : Нет
Параметр QPel формата : Нет
Параметр GMC формата : Без точки перехода
Параметр матрицы формата : Default (H.263)
Идентификатор кодека : DX50
Идентификатор кодека/Подсказка : DivX 5
Продолжительность : 2 м. 31 с.
Битрейт : 3494 Кбит/сек
Ширина : 720 пикселей
Высота : 540 пикселей
Соотношение сторон : 4:3
Частота кадров : 25,000 кадров/сек
Цветовое пространство : YUV
Субдискретизация насыщенности : 4:2:0
Битовая глубина : 8 бит
Тип развёртки : Прогрессивная
Метод сжатия : С потерями
Бит/(Пиксели*Кадры) : 0.359
Размер потока : 63,2 Мбайт (95%)
Заголовок : Video
Библиотека кодирования : DivX 6.2.5 (UTC 2006-06-16)

Аудио
Идентификатор : 1
Формат : MPEG Audio
Версия формата : Version 1
Профиль формата : Layer 3
Режим : Joint stereo
Расширение режима : MS Stereo
Идентификатор кодека : 55
Идентификатор кодека/Подсказка : MP3
Продолжительность : 2 м. 31 с.
Вид битрейта : Постоянный
Битрейт : 192 Кбит/сек
Каналы : 2 канала
Частота : 48,0 КГц
Метод сжатия : С потерями
Размер потока : 3,47 Мбайт (5%)
Выравнивание : Разделение по промежуткам
Продолжительность промежутка : 40 мс. (1,00 видеокадр)
Время предзагрузки промежутка : 500 мс.
Заголовок : Audio
Библиотека кодирования : LAME3.96
Скриншоты:




Время раздачи: С 09:00 до 23:00
[NNM-Club.ru]_YUriy Gagarin.50 let proshlo (2011) TVRip.avi.torrent
 Торрент: Платиновая раздача  Зарегистрирован
 
Скачать


Примагнититься
 Зарегистрирован:   11 Апр 2013 15:30:24
 Размер:   66,8 MB  (
 Рейтинг:   4,6 (Голосов: 32)
 Поблагодарили:   85
 Проверка:   Оформление проверено модератором 11 Апр 2013 15:48:17
Как cкачать  ·  Как раздать  ·  Правильно оформить  ·  Поднять ратио!  
Показать сообщения:   
Начать новую тему   Ответить на тему    Торрент-трекер NNM-Club -> Документалистика и Телепередачи -> Космос Часовой пояс: GMT + 3
Страница 1 из 1