Классический форум-трекер
canvas not supported
Нас вместе: 4 093 181

Ментовские войны 7 [16 серий из 24] (2013) WEB-DLRip


Страницы:  1, 2  След. 
 
RSS
Начать новую тему   Ответить на тему    Торрент-трекер NNM-Club -> Отечественные сериалы -> Ментовские войны
Автор Сообщение
Sедой ®
Стаж: 9 лет 5 мес.
Сообщений: 3057
Ratio: 5117,534
Поблагодарили: 644127
100%
Откуда: Донецк
Ментовские войны-7 [16 серий из 24] (2013) WEB-DLRip
Русское название: Ментовские войны-7
Выпущено: Россия, "Студия Панорама", "Форвард-фильм"
Год выпуска: 2013
Жанр: Боевик, криминал, детектив
Перевод: Оригинал (Русский)
Субтитры: Отсутствуют



Дата российской премьеры: 13 апреля 2013

Режиссер: Сергей Раевский
Актеры: Александр Устюгов, Дмитрий Быковский-Ромашов, Всеволод Цурило, Андрей Родимов, Андрей Кузнецов, Светлана Смирнова-Кацагаджиева, Александр Марушев, Руслан Ибрагимов, Мария Иванова, Владимир Студеновский, Дмитрий Лебедев, Янина Соколовская, Евгения Устюгова, Сергей Лысов, Юлия Левакова, Роман Громадский, Марина Игнатова, Александр Лисицын, Анатолий Узденский, Олег Вебер, Ольга Иванова, Сергей Федоров, Павел Юлку, Антон Виноградов, Алексей Лысенко, Дмитрий Белов, Даниил Эйдлин, Ольга Иванова, Татьяна Гончарова, Сергей Бубнов, Владимир Крылов, Мурад Султаниязов, Сергей Магиленич, Александр Сорокин, Максим Крупский, Иван Бровин, Игорь Бессчастнов, Роман Жилкин, Андрей Бордухаев, Полина Дудкина

Описание фильма:
В новых сериях сотрудники отдела по расследованию умышленных убийств ГУ МВД Санкт-Петербурга, уже аттестованные как полицейские, продолжат борьбу с наиболее опасными представителями криминальной изнанки города и будут вынуждены вновь столкнуться с так называемыми "оборотнями в погонах", которые способны причинить не меньший вред, чем закоренелые преступники.

Продолжительность: 16 х ~ 00:46:00 серия
Качество видео: WEB-DLRip

Видеокодек: Xvid
Битрейт видео: ~1470 Kbit/s
Размер кадра: 720 x 400
Аудиокодек: AC3, 2.0
Битрейт аудио: 192 Kbit/s
Общее
Полное имя : D:\Торренты\Ментовские войны-7. 2013. SATRip\Ментовские войны-7.01.avi
Формат : AVI
Формат/Информация : Audio Video Interleave
Размер файла : 551 Мбайт
Продолжительность : 46 м.
Общий поток : 1672 Кбит/сек

Видео
Идентификатор : 0
Формат : MPEG-4 Visual
Профиль формата : Advanced Simple@L5
Параметр BVOP формата : 1
Параметр QPel формата : Нет
Параметр GMC формата : Без точки перехода
Параметр матрицы формата : Default (H.263)
Режим смешивания : Сжатый битовый поток
Идентификатор кодека : XVID
Идентификатор кодека/Подсказка : XviD
Продолжительность : 46 м.
Битрейт : 1470 Кбит/сек
Ширина : 720 пикс.
Высота : 400 пикс.
Соотношение сторон : 16:9
Частота кадров : 25,000 кадр/сек
Цветовое пространство : YUV
Подвыборка цветности : 4:2:0
Битовая глубина : 8 бит
Тип развёртки : Прогрессивная
Метод сжатия : С потерями
Бит/(Пиксели*Кадры) : 0.204
Размер потока : 484 Мбайт (88%)
Библиотека кодирования : XviD 64

Аудио
Идентификатор : 1
Формат : AC-3
Формат/Информация : Audio Coding 3
Расширение режима : CM (complete main)
Идентификатор кодека : 2000
Продолжительность : 46 м.
Вид битрейта : Постоянный
Битрейт : 192 Кбит/сек
Каналы : 2 канала
Расположение каналов : Front: L R
Частота : 48,0 КГц
Битовая глубина : 16 бит
Метод сжатия : С потерями
Размер потока : 63,3 Мбайт (11%)
Выравнивание : Соединение по промежуткам
Продолжительность промежутка : 40 мс. (1,00 видеокадр)
Время предзагрузки промежутка : 512 ms

Скриншоты:

Время раздачи: 24/7 по возможности
Ментовские войны на NNM-club
[NNM-Club.ru]_Mentovskie voynyi-7. 2013. WEB-DLRip.torrent
 Торрент: Платиновая раздача  Зарегистрирован
 
Скачать


 Зарегистрирован:   15 Апр 2013 12:10:09
 Размер:   8,6 GB  (
 Рейтинг:   4,6 (Голосов: 279)
 Поблагодарили:   1108
 Проверка:   Оформление проверено модератором 15 Апр 2013 17:24:55
Как cкачать  ·  Как раздать  ·  Правильно оформить  ·  Поднять ратио!  
slaventiy973
Стаж: 8 лет 8 мес.
Сообщений: 75
Ratio: 2,844
100%
pirates.png
=) http:/[стерелизуемый_трекер]
Кто желает в качестве,вот я нашел)весь сезон!!!
 !  Примечание от Robert Ingil:
Запрещено.
2.11. Ссылаться на другие ресурсы сети….
www1414
Стаж: 8 лет 11 мес.
Сообщений: 543
Ratio: 18,857
100%
russia.gif
обалдеть все таки продолжение снимают это хорошо я очень рад ! думал не будет продолжения актер Завьялов Алексей погиб жаль
mkg0
Стаж: 8 лет 7 мес.
Сообщений: 36
Ratio: 3,781
Раздал: 1,531 TB
95.5%
Откуда: Саратов
russia.gif
Оппа какие люди)
kalt12
Uploader 100+
Стаж: 7 лет 3 мес.
Сообщений: 3728
Ratio: 161,642
Раздал: 196,4 TB
100%
russia.gif
:респект: Sедому за оперативность! :клево:! Сериал интересный!Неожиданное продолжение!Посмотрим,посмотрим... :да:
Rpik
Стаж: 10 лет 2 мес.
Сообщений: 52
Ratio: 4,324
Поблагодарили: 97
30.31%
russia.gif
отлично. долго ждал. буду на раздаче в 60 мб/с
kalt12
Uploader 100+
Стаж: 7 лет 3 мес.
Сообщений: 3728
Ratio: 161,642
Раздал: 196,4 TB
100%
russia.gif
:поклоняется: Sедому и :респект:!5 серий одним махом! :супер!: Фильм классный!
vbe
Стаж: 11 лет 4 мес.
Сообщений: 140
Ratio: 5,402
100%
Откуда: Омск
russia.gif
Спасибо, приятный сюрприз!
Ivanovihigor
Стаж: 7 лет 1 мес.
Сообщений: 46
Ratio: 1,885
100%
Раздающему - огромное спасибо. Это один из моих любимых сериалов, давно ждал.
Keezoom
Стаж: 12 лет 11 мес.
Сообщений: 62
Ratio: 13,355
100%
Откуда: Подольск
ussr.gif
СПАСИБО! Думал не дождусь. )
Добавлю 50Мб/с к раздаче.
bodrums
Стаж: 9 лет 5 мес.
Сообщений: 34
Ratio: 3,292
100%
turkey.gif
спасибо!
мтк
Стаж: 8 лет 11 мес.
Сообщений: 35
Ratio: 230,532
Раздал: 93,01 TB
100%
ussr.gif
ну нормалек!!! :клево: не ожидал,что продолжение будет!!! :супер!:
olala272
Стаж: 8 лет 8 мес.
Сообщений: 71
Ratio: 12,265
100%
russia.gif
Отличный сезон! Особенно понравился третий фильм. А судя по последней серии - не за горами и 8 сезон
Antichrist1234
Стаж: 9 лет 3 мес.
Сообщений: 7
Ratio: 23,818
100%
spain.gif
спасибо отличный сериал
gavroush
Стаж: 9 лет 11 мес.
Сообщений: 52
Ratio: 12,273
100%
Откуда: Брянск
russia.gif
Был отличный.
Сейчас, видимо бюджет сильно урезали. На придумать сюжет еще хватает, а на нормально прописать диалоги героев уже нет.
Сползает потихоньку в серую массу детективчиков на сон грядущий. Очень жаль.
ЗЫ. Раздающему респект!
Показать сообщения:   
Начать новую тему   Ответить на тему    Торрент-трекер NNM-Club -> Отечественные сериалы -> Ментовские войны Часовой пояс: GMT + 3
Страницы:  1, 2  След.
Страница 1 из 2