Классический форум-трекер
canvas not supported
Нас вместе: 4 079 379

Fairy Tale видеокурс. Про пони, мышонка и хвастливого зайчонка (2010) DVD5


 
 
RSS
Начать новую тему   Ответить на тему    Торрент-трекер NNM-Club -> Видео -> Развивающее Видео для детей
Автор Сообщение
starklad ®
RG Всё лучшее - детям!
Реставратор Детского, Uploader 100+
 
Стаж: 7 лет 10 мес.
Сообщений: 7923
Ratio: 12K
Поблагодарили: 198801
100%
Откуда: родом из СССР
ussr.gif
Fairy Tale видеокурс. Про пони, мышонка и хвастливого зайчонка (2010) DVD5
Русское название: Fairy Tale видеокурс. Про пони, мышонка и хвастливого зайчонка
Год выпуска: 2010
Производство: Россия, English Club TV
Жанр: Детский, Развивающий
Язык: Русский, английский

Описание фильма:
Практический видеокурс по изучению английского языка для детей. Fairy Tale - добрые сказки для самых маленьких. Дети учат английский, слушая сказки и следя за рисунками, которые художник создает на глазах телезрителей цветными карандашами. Рисование вызывает положительные эмоции у ребенка, он не только наблюдает за процессом, но и учится рисовать вместе с художником добрых и смешных героев. Каждая фраза произносится на английском, а затем на русском языках. В отдельном облачке на экране малыш видит английские слова, которые произносятся рассказчиком. Ребенок усвоит английский "со скоростью света", полюбит героев сказок и откроет для себя удивительный мир знаний. Веселая музыка, интересные сюжеты сказок, забавные рисунки и оригинальная подача учебного материала доставят ребенку море удовольствия. Аудио- и визуальное восприятие иностранной речи позволят детям в возрасте от 4-х до 7-ми лет с легкостью запомнить ключевые слова и простые грамматические конструкции на английском языке. Каждый рисунок сопровождается титрами с ключевыми словами на английском языке. Сборник состоит из 15-ти добрых сказок.

За предоставленный DVD5 Спасибо Big111

Продолжительность: 01:30:46
Качество видео: DVD5

Видеокодек: MPEG-2
Битрейт видео: ~6500 kb/s
Размер кадра: 720х576
Аудиокодек: AC3 2 ch
Битрейт аудио: 256 kb/s
01. Мальчик - имбирный пряник
02. Хвастливый зайчик
03. Волшебные карандаши
04. Лесные жители
05. Мечта маленькой гусеницы
06. О дружбе мышонка и котенка
07. Большое путешествие маленьких друзей
08. Созвездие КотоМышка
09. Мышонок в гостях у котенка
10. Новые друзья
11. Розовый пони из цирка
12. Пони и потерянный мальчик
13. Пони учится танцевать
14. Пони в Африке
15. Страна розовых пони
Формат : MPEG-PS
Размер файла : 1024 Мбайт
Продолжительность : 1 м. 40 с.
Режим общего битрейта : Переменный
Общий поток : 85,5 Мбит/сек

Видео
Идентификатор : 224 (0xE0)
Формат : MPEG Video
Версия формата : Version 2
Профиль формата : Main@Main
Параметр BVOP формата : Да
Параметр матрицы формата : По умолчанию
Параметр GOP формата : M=3, N=12
Продолжительность : 1 м. 40 с.
Вид битрейта : Переменный
Битрейт : 83,5 Мбит/сек
Максимальный битрейт : 6500 Кбит/сек
Ширина : 720 пикселей
Высота : 576 пикселей
Соотношение сторон : 4:3
Частота кадров : 25,000 кадров/сек
Стандарт вещания : PAL
Цветовое пространство : YUV
Субдискретизация насыщенности : 4:2:0
Битовая глубина : 8 бит
Тип развёртки : Прогрессивная
Метод сжатия : С потерями
Бит/(Пиксели*Кадры) : 8.057
Размер потока : 1001 Мбайт (98%)
Основные цвета : BT.470-2 System B, BT.470-2 System G
Характеристики трансфера : BT.470-2 System B, BT.470-2 System G
Коэффициенты матрицы : BT.470-2 System B, BT.470-2 System G

Аудио
Идентификатор : 189 (0xBD)-128 (0x80)
Формат : AC-3
Формат/Информация : Audio Coding 3
Расширение режима : CM (complete main)
Параметр Endianness формата : Big
Режим смешивания : DVD-Video
Продолжительность : 1 м. 40 с.
Вид битрейта : Постоянный
Битрейт : 256 Кбит/сек
Каналы : 2 канала
Расположение каналов : Front: L R
Частота : 48,0 КГц
Битовая глубина : 16 бит
Метод сжатия : С потерями
Задержка видео : -224 мс.
Размер потока : 3,07 Мбайт (0%)

Меню
Title: Fairy Tale.Английский язык для детeй.2010.DVD5
Size: 3.29 Gb ( 3 448 051,00 KBytes ) - DVD-5
Enabled regions: 1, 2, 3, 4, 5, 6, 7, 8

VTS_01 :
Play Length: 00:00:14+00:05:06+00:06:51+00:03:53+00:05:37+00:04:31+00:03:58+00:07:11+00:05:34+00:05:26+00:05:08+00:07:00+00:07:54+00:07:18+00:07:32+00:07:33
Video: PAL 4:3 (720x576) VBR
Audio:
Not specified (Dolby AC3, 2 ch)

* Menus Information *

VIDEO_TS Menu
Video:
PAL 4:3 (720x576) VBR
Audio:
Not specified (Dolby AC3, 2 ch)
English Language Unit :
Title Menu

VTS_01 Menu
Video:
NTSC 4:3 (720x480) VBR
Auto Pan&Scan, Auto Letterboxed
English Language Unit :
Root Menu
Скриншоты

Смотрите так же другие мои раздачи
Время раздачи: С 08:00 до 23:00 до первых 10-ти скачавших, далее по возможности
[NNM-Club.ru]_Fairy Tale.Angliyskiy yazyik dlya detey.2010.DVD5.torrent
 Торрент: Платиновая раздача  Зарегистрирован
 
Скачать


Примагнититься
 Зарегистрирован:   20 Апр 2013 13:45:22
 Размер:   3,29 GB  (
 Рейтинг:   4,7 (Голосов: 29)
 Поблагодарили:   126
 Проверка:   Оформление проверено модератором 20 Апр 2013 14:07:47
Как cкачать  ·  Как раздать  ·  Правильно оформить  ·  Поднять ратио!  
starklad ®
RG Всё лучшее - детям!
Реставратор Детского, Uploader 100+
 
Стаж: 7 лет 10 мес.
Сообщений: 7923
Ratio: 12K
Поблагодарили: 198801
100%
Откуда: родом из СССР
ussr.gif
Еще один диск из этой серии English: Про веселые приключения лучших друзей (2010) DVD5
aries_mc
Стаж: 9 лет 3 мес.
Сообщений: 252
Ratio: 4,327
11.29%
Откуда: Україна
ukraine.gif
starklad писал(а): Перейти к сообщению


Благодарочка!
А то мы с мелким уже прошли "Английский с хрюшей и степашей" .
Хотим истчо по спикать...

_________________
Если что не комильфо - то прошу пардону!
starklad ®
RG Всё лучшее - детям!
Реставратор Детского, Uploader 100+
 
Стаж: 7 лет 10 мес.
Сообщений: 7923
Ratio: 12K
Поблагодарили: 198801
100%
Откуда: родом из СССР
ussr.gif
aries_mc
Пожалуйста! Для деток и стараемся :да:
Показать сообщения:   
Начать новую тему   Ответить на тему    Торрент-трекер NNM-Club -> Видео -> Развивающее Видео для детей Часовой пояс: GMT + 3
Страница 1 из 1