Классический форум-трекер
canvas not supported
Нас вместе: 4 079 175

Львиное сердце / Singam (2010) BDRip [720р MVO]


 
 
RSS
Начать новую тему   Ответить на тему    Торрент-трекер NNM-Club -> Зарубежное кино -> Индийское кино
Автор Сообщение
Ниа! ®
Uploaders 100+
Overclocker
 
Стаж: 6 лет 7 мес.
Сообщений: 1515
Ratio: 239,498
Раздал: 121,6 TB
Поблагодарили: 16235
100%
Откуда: Москва, Марьина роща
russia.gif
Львиное сердце / Singam(2010) BDRip [720р MVO]
Русское название: Львиное сердце
Оригинальное название: Singam
Год выпуска: 2010
Жанр: Комедия, Боевик, Драма

Описание фильма:
Жил да был Дурай Сингам в деревушке под названием Наллур. Был у него бравый помощник, который больше создавал проблем, чем решал. Разбирали они местечковые разборки, кто у кого украл козу, кто похитил навоз, и заканчивалось это настолько мирно, что не было в их участке заведено ни одного дела.

Однажды приехала в деревню к бабушке и дедушке внучка Кавья. После череды недоразумений она, само собой, влюбилась в доблестного Дурая, а он.. Но самое главное, злодей! Был в Ченнае противный такой злой разбойник Бармалей местного разлива… Майил Ваганам его звали. Людей похищал, угрожал, деньги вымогал. И вот его один раз прикрепили к участку Дурая отмечать документы о залоге…

Режиссер: Хари
Актеры: Сурья, Пракаш Радж, Анушка Шетти, Нассер, Манорама, Вивек

Продолжительность: 02:33:59
Перевод: Многоголосый закадровый
Автор перевода: Red Media




Дата мировой премьеры: 28.05.2010

Видеокодек: MPEG-4 AVC/H.264
Битрейт видео: ~1816 Кбит/сек
Размер кадра: 1280х560
Качество видео: BDRip
Аудиокодек: AC3 2.0
Битрейт аудио: 192 Кбит/сек
Сэмпл: Ссылка
Общее
Уникальный идентификатор : 200882384296320381844751306818547643267 (0x97208A384D9F002EB0A86123D6AC7383)
Полное имя : C:\INDIYA\[Релизы]\LVINOE.SERDCE.2010.BDRip.720p.х264.mkv
Формат : Matroska
Версия формата : Version 2
Размер файла : 2,16 Гбайт
Продолжительность : 2 ч. 34 м.
Общий поток : 2010 Кбит/сек
Дата кодирования : UTC 2013-01-30 20:24:24
Программа кодирования : mkvmerge v2.7.0 ('Do It Again') built on Apr 15 2009 00:27:10
Библиотека кодирования : libebml v0.7.7 + libmatroska v0.8.1

Видео
Идентификатор : 1
Формат : AVC
Формат/Информация : Advanced Video Codec
Профиль формата : High@L4.1
Параметр CABAC формата : Да
Параметр ReFrames формата : 8 кадров
Идентификатор кодека : V_MPEG4/ISO/AVC
Продолжительность : 2 ч. 34 м.
Битрейт : 1816 Кбит/сек
Ширина : 1280 пикселей
Высота : 560 пикселей
Соотношение сторон : 2,25:1
Режим частоты кадров : Постоянный
Частота кадров : 23,976 кадра/сек
Цветовое пространство : YUV
Субдискретизация насыщенности : 4:2:0
Битовая глубина : 8 бит
Тип развёртки : Прогрессивная
Бит/(Пиксели*Кадры) : 0.106
Размер потока : 1,91 Гбайт (88%)
Заголовок : HD SLAMMER Team[xMS]
Библиотека кодирования : x264 core 112 r1867 22bfd31
Настройки программы : cabac=1 / ref=8 / deblock=1:-1:-1 / analyse=0x3:0x133 / me=umh / subme=10 / psy=1 / psy_rd=1.00:0.15 / mixed_ref=1 / me_range=24 / chroma_me=1 / trellis=2 / 8x8dct=1 / cqm=1 / deadzone=21,11 / fast_pskip=0 / chroma_qp_offset=-3 / threads=6 / sliced_threads=0 / nr=0 / decimate=1 / interlaced=0 / constrained_intra=0 / bframes=3 / b_pyramid=2 / b_adapt=2 / b_bias=0 / direct=3 / weightb=1 / open_gop=0 / weightp=2 / keyint=250 / keyint_min=23 / scenecut=40 / intra_refresh=0 / rc_lookahead=60 / rc=2pass / mbtree=1 / bitrate=1816 / ratetol=1.0 / qcomp=0.70 / qpmin=4 / qpmax=51 / qpstep=4 / cplxblur=20.0 / qblur=0.5 / ip_ratio=1.40 / aq=1:1.00
Язык : Tamil
Default : Да
Forced : Нет

Аудио
Идентификатор : 2
Формат : AC-3
Формат/Информация : Audio Coding 3
Расширение режима : CM (complete main)
Параметр Endianness формата : Big
Идентификатор кодека : A_AC3
Продолжительность : 2 ч. 34 м.
Вид битрейта : Постоянный
Битрейт : 192 Кбит/сек
Каналы : 2 канала
Расположение каналов : Front: L R
Частота : 48,0 КГц
Битовая глубина : 16 бит
Метод сжатия : С потерями
Размер потока : 212 Мбайт (10%)
Заголовок : АС3 2ch 192 MVO RedMedia
Язык : Russian
Default : Да
Forced : Да
Скриншоты:


Время раздачи: 24/7
[NNM-Club.ru]_L'vinoe serdtse Singam BDRip [720r MVO] (2010).mkv.torrent
 Торрент: Платиновая раздача  Зарегистрирован
 
Скачать


 Зарегистрирован:   25 Апр 2013 10:52:48
 Размер:   2,16 GB  (
 Рейтинг:   4,3 (Голосов: 30)
 Поблагодарили:   85
 Проверка:   Оформление проверено модератором 25 Апр 2013 23:37:12
Как cкачать  ·  Как раздать  ·  Правильно оформить  ·  Поднять ратио!  

_________________
Если после скачивания торрента закачивать его обратно, то ничего, как-бы, и не было...
Обзоры, разблокировки и разгон компьютерных комплектующих
Загрузка...
Ниа! ®
Uploaders 100+
Overclocker
 
Стаж: 6 лет 7 мес.
Сообщений: 1515
Ratio: 239,498
Раздал: 121,6 TB
Поблагодарили: 16235
100%
Откуда: Москва, Марьина роща
russia.gif
Да, это тот самый мужик, который вырывает фонарные столбы, останавливает машину рукой и не знает законов физики =)

_________________
Если после скачивания торрента закачивать его обратно, то ничего, как-бы, и не было...
Обзоры, разблокировки и разгон компьютерных комплектующих
Qawer20
Стаж: 9 лет 3 мес.
Сообщений: 733
Ratio: 1,035
100%
andorra.gif
:стрельба: фильм шагнул на много дальше матрицы
hendehog
Стаж: 9 лет 7 мес.
Сообщений: 129
Ratio: 16,609
9.14%
russia.gif
Это тамильский оригинал. Более известен болливудский римейк с Акжаем Девгном.
Revo1t
Стаж: 8 лет 4 мес.
Сообщений: 63
Ratio: 7,83
100%
Откуда: Екатеринбург
russia.gif
Забираю.В коллекцию...
Ниа! ®
Uploaders 100+
Overclocker
 
Стаж: 6 лет 7 мес.
Сообщений: 1515
Ratio: 239,498
Раздал: 121,6 TB
Поблагодарили: 16235
100%
Откуда: Москва, Марьина роща
russia.gif

_________________
Если после скачивания торрента закачивать его обратно, то ничего, как-бы, и не было...
Обзоры, разблокировки и разгон компьютерных комплектующих
Показать сообщения:   
Начать новую тему   Ответить на тему    Торрент-трекер NNM-Club -> Зарубежное кино -> Индийское кино Часовой пояс: GMT + 3
Страница 1 из 1