Классический форум-трекер
canvas not supported
Нас вместе: 4 077 757

иер. Димитрий (Юревич) | Кумранские рукописи [2005] DVDRip


 
 
RSS
Начать новую тему   Ответить на тему    Торрент-трекер NNM-Club -> Религии и культы -> Религиозное видео
Автор Сообщение
МиSHа ®
Стаж: 8 лет 7 мес.
Сообщений: 1290
Ratio: 84,995
Поблагодарили: 43039
100%
russia.gif
иер. Димитрий (Юревич) | Кумранские рукописи [2005] DVDRip
Автор: иер. Димитрий (Юревич)
Название: Кумранские рукописи
Год выпуска: 2005
Жанр: Православие
Качество видео: DVDRip
Продолжительность: 01:10:56
Видеокодек: XviD
Битрейт видео: ~1265kbps
Размер кадра: 608x480
Аудиокодек: MP3
Битрейт аудио: 224kbps

Описание:
Кандидат богословия, иерей Дмитрий Юревич в стенах МДАиС читает лекцию об свитках Мертвого моря, иначе называемыми кумранскими рукописями.
Общее
Полное имя : H:\Кумранские рукописи. Юревич..avi
Формат : AVI
Формат/Информация : Audio Video Interleave
Размер файла : 762 Мбайт
Продолжительность : 1 ч. 10 м.
Общий поток : 1502 Кбит/сек

Видео
Идентификатор : 0
Формат : MPEG-4 Visual
Профиль формата : Simple@L0
Параметр BVOP формата : Нет
Параметр QPel формата : Нет
Параметр GMC формата : Без точки перехода
Параметр матрицы формата : Default (H.263)
Идентификатор кодека : XVID
Идентификатор кодека/Подсказка : XviD
Продолжительность : 1 ч. 10 м.
Битрейт : 1265 Кбит/сек
Ширина : 608 пикселей
Высота : 480 пикселей
Соотношение сторон : 5:4
Частота кадров : 27,000 кадров/сек
Цветовое пространство : YUV
Субдискретизация насыщенности : 4:2:0
Битовая глубина : 8 бит
Тип развёртки : Прогрессивная
Метод сжатия : С потерями
Бит/(Пиксели*Кадры) : 0.161
Размер потока : 642 Мбайт (84%)

Аудио
Идентификатор : 1
Формат : MPEG Audio
Версия формата : Version 1
Профиль формата : Layer 3
Идентификатор кодека : 55
Идентификатор кодека/Подсказка : MP3
Продолжительность : 1 ч. 10 м.
Вид битрейта : Постоянный
Битрейт : 224 Кбит/сек
Каналы : 2 канала
Частота : 44,1 КГц
Метод сжатия : С потерями
Размер потока : 114 Мбайт (15%)
Выравнивание : Разделение по промежуткам
Продолжительность промежутка : 26 мс. (0,71 видеокадр)
Библиотека кодирования : LAME3.98.2
Скриншоты:


Время раздачи: с 10:00 до 20:00
Kumranskie_rukopisi_[nnm-club]_avi_.torrent
 Торрент:   Зарегистрирован
 
Зарегистрируйтесь и скачайте торрент!
15,4 KB

Примагнититься
 Зарегистрирован:   26 Апр 2013 11:10:57
 Размер:   762 MB  (
 Рейтинг:   4,7 (Голосов: 18)
 Поблагодарили:   67
 Проверка:   Оформление проверено модератором 26 Апр 2013 12:23:11
Как cкачать  ·  Как раздать  ·  Правильно оформить  ·  Поднять ратио!  
serg4444
 
Стаж: 10 лет 1 мес.
Сообщений: 105
Ratio: 16,817
Раздал: 27,99 TB
100%
Спасибо!
Продолжение есть?
МиSHа ®
Стаж: 8 лет 7 мес.
Сообщений: 1290
Ratio: 84,995
Поблагодарили: 43039
100%
russia.gif
Надеюсь будут
Артем Ивочкин
Стаж: 8 лет 10 мес.
Сообщений: 863
Ratio: 37,028
Поблагодарили: 5384
100%
russia.gif
Ух ты! МиSHа, респект!
Срочно забираем...

_________________
с уважением.
Артем Ивочкин
Стаж: 8 лет 10 мес.
Сообщений: 863
Ratio: 37,028
Поблагодарили: 5384
100%
russia.gif
Христос воскресе!

Миша, давай вторую часть! Где хочешь там и ищи, я не нашел.
Нашел только саму книгу:

_________________
с уважением.
МиSHа ®
Стаж: 8 лет 7 мес.
Сообщений: 1290
Ratio: 84,995
Поблагодарили: 43039
100%
russia.gif
Воистину воскресе!!!
(буду стараться найти :задумался: )
Eugenij_
Стаж: 10 лет 7 мес.
Сообщений: 717
Ratio: 900,883
Раздал: 34,26 TB
Поблагодарили: 18411
100%
russia.gif
Возьму. Оставлю в нетленке. Спасибо!
blaksoul
Стаж: 5 лет 6 мес.
Сообщений: 2
0%
Спаси Бог за лекцию!
Показать сообщения:   
Начать новую тему   Ответить на тему    Торрент-трекер NNM-Club -> Религии и культы -> Религиозное видео Часовой пояс: GMT + 3
Страница 1 из 1