Классический форум-трекер
canvas not supported
Нас вместе: 4 077 065

Сказка о Мальчише-Кибальчише (1964) DVBRip [H.264]


 
 
RSS
Начать новую тему   Ответить на тему    Торрент-трекер NNM-Club -> Видео -> Отечественные Фильмы для детей
Автор Сообщение
denver7979 ®
Зам. Куратора Детского.
Модератор Видео.
RG Всё лучшее - детям!
 
Стаж: 8 лет 8 мес.
Сообщений: 7568
Ratio: 491,242
Раздал: 33,9 TB
Поблагодарили: 308880
100%
Откуда: Земля
ussr.gif
Сказка о Мальчише-Кибальчише (1964) DVBRip [H.264]
Год выпуска: 1964
Жанр: Детский, Драма, Военный

Описание:
В те дальние годы, когда только что отгремела по всей стране война, жил да был Мальчиш, по прозванию Кибальчиш… Но пришла беда, откуда не ждали. Напал из-за Черных Гор проклятый Буржуин. Опять уже свистят пули, опять уже рвутся снаряды.
Бьются с буржуинами наши отряды, и мчатся гонцы звать на помощь далекую Красную Армию. Да примчался к ним на подмогу Мальчиш-Кибальчиш…

Режиссер: Евгений Шерстобитов
Актеры: Сергей Остапенко (...Мальчиш-Кибальчиш), Анатолий Юрченко, Сергей Сибель, Юрий Лавров, Сергей Мартинсон, Лев Перфилов, Сергей Тихонов, Леонид Галлис, Дмитрий Капка, Петр Кирюткин, Александр Толстых, Виктор Полищук, Петр Соболевский.

Автор рипа: denver7979



Продолжительность: 01:11:33
Качество видео: DVBRip

Видео: AVC, 720x544 (4:3), 25.000 fps, 2 144 Kbps (0.219 bit/pixel)
Аудио: AC-3, 48.0 KHz, 2 ch, 192 Kbps, CBR
Видео
Идентификатор : 1
Формат : AVC
Формат/Информация : Advanced Video Codec
Профиль формата : Main@L3.1
Параметр CABAC формата : Да
Параметр ReFrames формата : 6 кадров
Идентификатор кодека : V_MPEG4/ISO/AVC
Продолжительность : 1 ч. 11 м.
Битрейт : 2144 Кбит/сек
Ширина : 720 пикселей
Высота : 544 пикселя
Соотношение сторон : 4:3
Режим частоты кадров : Постоянный
Частота кадров : 25,000 кадров/сек
Цветовое пространство : YUV
Субдискретизация насыщенности : 4:2:0
Битовая глубина : 8 бит
Тип развёртки : Прогрессивная
Бит/(Пиксели*Кадры) : 0.219
Размер потока : 1,05 Гбайт (90%)
Библиотека кодирования : x264 core 125 r2208 d9d2288
Настройки программы : cabac=1 / ref=6 / deblock=1:1:1 / analyse=0x1:0x131 / me=umh / subme=7 / psy=1 / psy_rd=0.40:0.00 / mixed_ref=1 / me_range=16 / chroma_me=1 / trellis=2 / 8x8dct=0 / cqm=0 / deadzone=21,11 / fast_pskip=0 / chroma_qp_offset=-2 / threads=3 / lookahead_threads=1 / sliced_threads=0 / nr=0 / decimate=1 / interlaced=0 / bluray_compat=0 / constrained_intra=0 / bframes=5 / b_pyramid=2 / b_adapt=2 / b_bias=0 / direct=3 / weightb=1 / open_gop=0 / weightp=2 / keyint=250 / keyint_min=25 / scenecut=40 / intra_refresh=0 / rc_lookahead=50 / rc=2pass / mbtree=1 / bitrate=2144 / ratetol=1.0 / qcomp=0.60 / qpmin=0 / qpmax=69 / qpstep=4 / cplxblur=20.0 / qblur=0.5 / ip_ratio=1.40 / aq=1:0.60
Default : Да
Forced : Нет

Аудио
Идентификатор : 2
Формат : AC-3
Формат/Информация : Audio Coding 3
Расширение режима : CM (complete main)
Параметр Endianness формата : Big
Идентификатор кодека : A_AC3
Продолжительность : 1 ч. 11 м.
Вид битрейта : Постоянный
Битрейт : 192 Кбит/сек
Каналы : 2 канала
Расположение каналов : Front: L R
Частота : 48,0 КГц
Битовая глубина : 16 бит
Метод сжатия : С потерями
Размер потока : 98,3 Мбайт (8%)
Default : Да
Forced : Нет
  • Артист Сергей Мартинсон сомневался, стоит ли ему играть в фильме, но когда познакомился с Серёжей Тихоновым и разыграл с ним этюд: «Пряник медовый дашь? …А два дашь? …А теперь халву давай, да побольше, а то не скажу…», — согласился.
  • Артист Леонид Галлис, сыгравший Главного Буржуина, иронизируя над собой, предложил соорудить у себя на лице большую бородавку.
  • Фильм был снят в достаточно короткий срок — за 2,5 месяца. Баррикады, где разворачивались бои, были выстроены под Севастополем. Съёмочная группа жила в палатках на территории близлежащего пионерского лагеря.
  • Юных актёров, игравших мальчишей, к схваткам с буржуинами готовили тренеры по самбо. Актёр Шурик Харитонов (самый маленький из мальчишей-малышей) на просьбу режиссёра «быть с дядей поосторожней», сказал: «А зачем они на нашу страну напали?».
Скриншоты:


Сказка о Мальчише-Кибальчише на NNM-club

Время раздачи: с 11:00 до 01:00
[NNM-Club.ru]_Mal'chish-Kibal'chish.mkv.torrent
 Торрент: Платиновая раздача  Зарегистрирован
 
Скачать


Примагнититься
 Зарегистрирован:   27 Апр 2013 10:41:12
 Размер:   1,17 GB  (
 Рейтинг:   4,6 (Голосов: 110)
 Поблагодарили:   360
 Проверка:   Оформление проверено модератором 27 Апр 2013 10:44:12
Как cкачать  ·  Как раздать  ·  Правильно оформить  ·  Поднять ратио!  
necromanc
Стаж: 9 лет 9 мес.
Сообщений: 1372
Ratio: 15,513
100%
krevedko.png
кажется он реставрирован и раскрашен?
denver7979 ®
Зам. Куратора Детского.
Модератор Видео.
RG Всё лучшее - детям!
 
Стаж: 8 лет 8 мес.
Сообщений: 7568
Ratio: 491,242
Раздал: 33,9 TB
Поблагодарили: 308880
100%
Откуда: Земля
ussr.gif
necromanc писал(а):
реставрирован и раскрашен

Вроде бы да.

_________________
§ Основной FAQ & Все ПравилаНабор в RG NNM-Club Всё для детей, пап и мам
* Все вопросы в ☛ ЛС по вашим релизам ☣
обязательно со ссылками на темы, о которых идёт речь ☺
Шурин
Стаж: 9 лет 5 мес.
Сообщений: 314
Ratio: 21,036
100%
russia.gif
Да за корзину печенья и бочку варенья....

_________________
Чем питаются слонопотамы?
egernik
Стаж: 8 лет 5 мес.
Сообщений: 57
Ratio: 16,383
100%
Откуда: Москва
russia.gif
denver7979 писал(а): Перейти к сообщению
necromanc писал(а):
реставрирован и раскрашен

Вроде бы да.


Нет, не раскрашен. Был изначально снят на цветную плёнку. Я смотрел оригинал. Смотрите также в Википедии:

Фотограф Екатерина Помелова пишет: «Мощнейшее цветовое решение серии отсылает нас к плакатной эстетике 1920-х, к таким выдающимся авангардным художникам как Эль Лисицкий или Родченко. Красочная феерия всех визуализаций сказки фокусируется на производстве всего двух образов — образа доблестного героя, и образа абсолютного врага.

Спасибо раздающему! Много хороших фильмов незаслуженно потерялись...

_________________
"То что спрятал - потерял ты, что раздал ты - то твоё" (Cенека + народная мудрость) :) .
Рявкин
Стаж: 8 лет 9 мес.
Сообщений: 9756
Ratio: 6M
Поблагодарили: 2358
100%
Откуда: из-за горизонта
прикольный фильм..

_________________
Kentatsu
Стаж: 8 лет 4 мес.
Сообщений: 310
Ratio: 22,218
100%
russia.gif
В детстве смотрели с удовольствием!
VENik39rus
 
Стаж: 9 лет 5 мес.
Сообщений: 400
Ratio: 2,099
100%
Откуда: из прошлого тысячелетия,
ussr.gif
Против чего боролись, на то и напоролись :( .

_________________
Не надо относиться к жизни слишком серьёзно, ещё никому не удавалось выйти из неё живым.
Показать сообщения:   
Начать новую тему   Ответить на тему    Торрент-трекер NNM-Club -> Видео -> Отечественные Фильмы для детей Часовой пояс: GMT + 3
Страница 1 из 1