Классический форум-трекер
canvas not supported
Нас вместе: 4 104 610

Убить Русского Императора. Или заговор по-английски (2009) DVBRip


 
 
RSS
Начать новую тему   Ответить на тему    Торрент-трекер NNM-Club -> Документалистика и Телепередачи -> Отечественная история
Автор Сообщение
nnmclub0112 ®
Стаж: 8 лет 3 мес.
Сообщений: 3914
Ratio: 82,54
Поблагодарили: 251811
100%
Убить Русского Императора. Или заговор по-английски (2009) DVBRip
Название: Убить Русского Императора. Или заговор по-английски

Режиссер / Телекомпания: Алексей Денисов
Год выпуска: 2009
Жанр: Документальный

Описание:
В ночь с 11 (23) марта 1801 на 12 (24) марта 1801 года в Михайловском замке при загадочных обстоятельствах был убит русский Император Павел Первый. Кто же стоял за этим преступлением? И в чьих интересах действовали убийцы?
Смотрите:
Почему это убийство века называют «заговором по-английски»?
Павел Первый: самодур или реформатор?
Англия, Франция, Россия борьба и пересечение интересов
Военный поход русски зачем Павел Первый его планировал ?
Укрепить государство и армию: намерение Царя, воплотившееся в дело...
Почему русский царь защитил остров Мальта?
Реакция русского общества на убийство Царя
Почему в нашей истории Император Павел остается одной из самых оклеветанных фигур

Продолжительность: 00:43:19

Видеокодек: MPEG-2
Битрейт видео: ~5347 Кбит/сек
Размер кадра: 720x576
Качество видео: DVBRip
Аудиокодек: AC3 2.0
Битрейт аудио: 192 Кбит/сек
Общее
Полное имя : J:\nF\Докум\!4 история\!\Убить Русского Императора. Или заговор по-английски\rip\Убить Русского Императора. Или заговор по-английски (2009) DVBRip.mpg
Формат : MPEG-PS
Размер файла : 1,71 Гбайт
Продолжительность : 43 м.
Режим общего битрейта : Переменный
Общий поток : 5652 Кбит/сек
Библиотека кодирования : (c) 1998-2010 Womble Multimedia, Inc. / MPEG Video Wizard DVD 5.0.0.114 (01/2010) / Jul 5 2010

Видео
Идентификатор : 224 (0xE0)
Формат : MPEG Video
Версия формата : Version 2
Профиль формата : Main@Main
Параметр BVOP формата : Да
Параметр матрицы формата : Выборочная
Параметр GOP формата : M=3, N=15
Продолжительность : 43 м.
Вид битрейта : Переменный
Битрейт : 5347 Кбит/сек
Максимальный битрейт : 6000 Кбит/сек
Ширина : 720 пикселей
Высота : 576 пикселей
Соотношение сторон : 4:3
Частота кадров : 25,000 кадров/сек
Стандарт вещания : PAL
Цветовое пространство : YUV
Субдискретизация насыщенности : 4:2:0
Битовая глубина : 8 бит
Тип развёртки : Чересстрочная
Порядок развёртки : Нижнее поле первое
Метод сжатия : С потерями
Бит/(Пиксели*Кадры) : 0.516
TimeCode_FirstFrame : 00:00:00:00
TimeCode_Source : Group of pictures header
Размер потока : 1,62 Гбайт (95%)
Библиотека кодирования : (c) 1998-2010 Womble Multimedia, Inc. / MPEG Video Wizard DVD 5.0.0.114 (01/2010) / Jul 5 2010

Аудио
Идентификатор : 189 (0xBD)-128 (0x80)
Формат : AC-3
Формат/Информация : Audio Coding 3
Расширение режима : CM (complete main)
Параметр Endianness формата : Big
Режим смешивания : DVD-Video
Продолжительность : 43 м.
Вид битрейта : Постоянный
Битрейт : 192 Кбит/сек
Каналы : 2 канала
Расположение каналов : Front: L R
Частота : 48,0 КГц
Битовая глубина : 16 бит
Метод сжатия : С потерями
Размер потока : 59,6 Мбайт (3%)

Меню
Скриншоты:


Время раздачи: С 09:00 до 23:00

Убить Русского Императора. Или заговор по-английски на NNM-CLUB
[NNM-Club.ru]_Ubit' Russkogo Imperatora. Ili zagovor po-angliyski (2009) DVBRip.mpg.torrent
 Торрент: Платиновая раздача  Зарегистрирован
 
Скачать


Примагнититься
 Зарегистрирован:   28 Апр 2013 18:30:09
 Размер:   1,71 GB  (
 Рейтинг:   4,2 (Голосов: 58)
 Поблагодарили:   195
 Проверка:   Оформление проверено модератором 28 Апр 2013 19:13:53
Как cкачать  ·  Как раздать  ·  Правильно оформить  ·  Поднять ратио!  
isidorbager
Стаж: 7 лет 3 мес.
Сообщений: 156
Ratio: 3,467
65.94%
russia.gif
Спасибо за раздачу! Ибо каждый россиянин должен знать подлинную историю России.
pericl
Куратор форумов
Мартовский кот
Стаж: 9 лет 8 мес.
Сообщений: 2668
Ratio: 416,814
100%
Откуда: Вологда
russia.gif
Сперва увидел по ТВ. Заинтересовался фильмом.
Спасибо!

_________________

А он придет и приведет за собой весну, и рассеет серых туч войска.
NikolayKapushka
Стаж: 4 года 10 мес.
Сообщений: 55
Ratio: 8,434
73.73%
Англичанка гадит!!
blek2014
Стаж: 4 года 10 мес.
Сообщений: 265
Ratio: 5,798
4.07%
Откуда: 404
witch.png
NikolayKapushka писал(а): Перейти к сообщению
Англичанка гадит!!
она всгда гадила и продолжает дальше..
Trixxxy
Стаж: 6 лет 3 мес.
Сообщений: 1492
Ratio: 7,799
100%
papuanewguinea.gif
blek2014 писал(а): Перейти к сообщению
NikolayKapushka писал(а): Перейти к сообщению
Англичанка гадит!!
она всгда гадила и продолжает дальше..
Это вам к доктору.

_________________
И так всё понятно.
yaroslav20021
Стаж: 8 лет 11 мес.
Сообщений: 210
Ratio: 5,588
Поблагодарили: 6
2.55%
usa.gif
я так понимаю, англичане, полностью заменили евреев, в качестве виновников всех проблем России?
mishanj
Стаж: 9 лет 6 мес.
Сообщений: 230
Ratio: 1,422
14.26%
ussr.gif
yaroslav20021 писал(а): Перейти к сообщению
я так понимаю, англичане, полностью заменили евреев, в качестве виновников всех проблем России?

затем следуют американцы , дураки и дороги
больше проблем нет
Показать сообщения:   
Начать новую тему   Ответить на тему    Торрент-трекер NNM-Club -> Документалистика и Телепередачи -> Отечественная история Часовой пояс: GMT + 3
Страница 1 из 1