Классический форум-трекер
canvas not supported
Нас вместе: 4 079 275

Uchuu Kaizoku Captain Harlock / Space Pirate Captain Harlock / Космический пират капитан Харлок [1978, TV, 42] DVDrip 480p raw


 
 
RSS
Начать новую тему   Ответить на тему    Торрент-трекер NNM-Club -> Аниме с субтитрами -> Аниме (SD)
Автор Сообщение
loki ®
Стаж: 8 лет 9 мес.
Сообщений: 4714
Ratio: 66
Поблагодарили: 36838
100%
Откуда: Днепр
roody.gif

Space Pirate Captain Harlock
Uchuu Kaizoku Captain Harlock
Космический пират капитан Харлок

Жанр: приключения, фантастика, драма
Продолжительность: 42 эп., 25 мин.
Дата премьеры / период выхода: c 14.03.1978 по 13.02.1979
Производство: студия Toei Animation
Автор оригинала: Мацумото Лэйдзи
Режиссер: Ринтаро
Снято по манге: Uchuu Kaizoku Captain Harlock
Качество видео: DVDRip
Видео: MPEG-4 XviD (8 bits) Гайд для MPC-HC
Битрейт видео: ~800 Kbps; 25.000 fps
Размер кадра: 640x480 (4/3)
Аудио: AC3; 48.0 KHz; 5.1ch; 448 Kbps
Язык озвучки: Японский
Субтитры: Русские; Английские
Перевод: Айрис777 ASS (int); Live-eviL & Anime-Destiny SRT (int)
Описание:
Экранизации классической манги Лэйдзи Мацумото о знаменитом космическом пирате капитане Харлоке и экипаже его звездного крейсера «Аркадия». Море Звезд не терпит флагов. Временем проверенно, что только один флаг имеет право развеваться на его просторах - "Флаг Свободы", веселый Роджер."Ты слышала о Капитане Харлоке и Эмеральдас? Я хочу бороздить Моря Свободы, как они. Я хочу получить механическое тело и жить вечно... И исследовать Море Звезд. Не это ли означает быть мужчиной?" - Тэцуро, Г.Э.999. Вот как эти персонажи видятся с Земли, всякий раз кем-либо угнетаемой. (Земля никогда не оказывается свободной. И, если не пришельцы - то сами люди тому виной.) Потому и не иссякает число желающих встать под флаг свободы. Те, кому это удалось, становятся вечными изгнанниками, свободными в космосе и не вольными вернуться домой.
01. The Jolly Roger of Space
02. A Message From the Unknown
03. A Woman Who Burns Like Paper
04. Under the Flag of Freedom
05. To the Shores of Distant Stars...
06. The Phantom Mazone
07. The Pyramid on the Sea Floor
08. The Queen's Space Fleet
09. The Fearsome Plant Lifeform
10. Approaching the Mystery Planet
11. When Lola Shines Golden
12. Mother, Be Eternal
13. Witch Castle in the Sea of Death
14. The Sphinx's Gravestone
15. Unrequited Love! The North Pole Aurora
16. Kei, the Farewell Song
17. The Skeletal Hero
18. The Evil Shadow Soldiers
19. Queen Lafresia's Trap
20. The Dead Planet Jura
21. Gohrum! The Tragic Soldier
22. Space Graveyard Deathshadow
23. Yattaran, Song of the Model Lover
24. The Shooting Star of Virgin Love
25. Doctor Zero and Mi
26. The Long Journey From Afar
27. The Will of the Arcadia
28. The Ulysses Nebula
29. Life and Death Struggle on the Rainbow Planet
30. My Friend, My Youth
31. The Arcadia's Secret Origins
32. Call Of The Star Flute
33. The Lone Man's Charge!
34. The Galactic Lullaby
35. The Beautiful Mystery Woman
36. The Eve Of The Showdown
37. Tears On A Red Sweater
38. Farewell, Mayu
39. Glory - The Commander's Passing
40. And Then, The Angels Sang
41. Dual - The Queen Versus Harlock
42. Farewell, Cosmic Corsair
Общее
Уникальный идентификатор : 170833116673220043201563225319876653744 (0x808542F0F811002AA956845FD624F2B0)
Полное имя : Captain_Harlock_(TV-1978)_-_01.mkv
Формат : Matroska
Версия формата : Version 4 / Version 2
Размер файла : 220 Мбайт
Продолжительность : 24 м.
Общий поток : 1249 Кбит/сек
Дата кодирования : UTC 2010-02-22 21:41:31
Программа кодирования : mkvmerge v5.8.0 ('No Sleep / Pillow') built on Sep 30 2012 10:57:14
Библиотека кодирования : libebml v1.3.0 + libmatroska v1.4.0

Видео
Идентификатор : 2
Формат : MPEG-4 Visual
Профиль формата : Advanced Simple@L5
Параметр BVOP формата : Да
Параметр QPel формата : Нет
Параметр GMC формата : Без точки перехода
Параметр матрицы формата : Default (H.263)
Идентификатор кодека : V_MS/VFW/FOURCC / XVID
Идентификатор кодека/Подсказка : XviD
Продолжительность : 24 м.
Битрейт : 776 Кбит/сек
Ширина : 640 пикселей
Высота : 480 пикселей
Соотношение сторон : 4:3
Режим частоты кадров : Постоянный
Частота кадров : 25,000 кадров/сек
Цветовое пространство : YUV
Субдискретизация насыщенности : 4:2:0
Битовая глубина : 8 бит
Тип развёртки : Прогрессивная
Метод сжатия : С потерями
Бит/(Пиксели*Кадры) : 0.101
Размер потока : 137 Мбайт (62%)
Библиотека кодирования : XviD 1.0.2 (UTC 2004-08-29)
Язык : Japanese
Default : Да
Forced : Нет

Аудио
Идентификатор : 5
Формат : AC-3
Формат/Информация : Audio Coding 3
Расширение режима : CM (complete main)
Параметр Endianness формата : Big
Режим смешивания : Header stripping
Идентификатор кодека : A_AC3
Продолжительность : 24 м.
Вид битрейта : Постоянный
Битрейт : 448 Кбит/сек
Каналы : 6 каналов
Расположение каналов : Front: L C R, Side: L R, LFE
Частота : 48,0 КГц
Битовая глубина : 16 бит
Метод сжатия : С потерями
Размер потока : 78,9 Мбайт (36%)
Заголовок : 5.1 Surround
Язык : Japanese
Default : Да
Forced : Нет

Текст #1
Идентификатор : 1
Формат : ASS
Идентификатор кодека : S_TEXT/ASS
Идентификатор кодека/Информация : Advanced Sub Station Alpha
Метод сжатия : Без потерь
Заголовок : Айрис777
Язык : Russian
Default : Да
Forced : Нет

Текст #2
Идентификатор : 3
Формат : ASS
Идентификатор кодека : S_TEXT/ASS
Идентификатор кодека/Информация : Advanced Sub Station Alpha
Метод сжатия : Без потерь
Заголовок : Anime Underworld
Язык : English
Default : Нет
Forced : Нет

Текст #3
Идентификатор : 4
Формат : ASS
Идентификатор кодека : S_TEXT/ASS
Идентификатор кодека/Информация : Advanced Sub Station Alpha
Метод сжатия : Без потерь
Заголовок : Unformatted
Язык : English
Default : Нет
Forced : Нет

Меню
00:00:07.000 : en:Opening
00:01:29.000 : en:A Planet With No Hope
00:04:46.000 : en:Attack!
00:09:34.000 : en:A World Deceived
00:10:43.000 : en:An Unknown Object In Space
00:15:39.000 : en:Harlock is coming!
00:17:06.000 : en:Mukashi, Mukashi
00:18:50.000 : en:A Friend Rests
00:21:05.000 : en:A Daring Escape!
00:23:11.000 : en:Preview for the Next Episode
00:23:34.000 : en:Ending
Информационные ссылки: Official page || ANN || AniDB || MAL || World Art




Время раздачи: 24/7
[NNM-Club.ru]_Space Pirate Captain Harlock (Live-eviL & A-Destiny).torrent
 Торрент: Платиновая раздача  Зарегистрирован
 
Скачать


Примагнититься
 Зарегистрирован:   29 Апр 2013 21:03:57
 Размер:   8,74 GB  (
 Рейтинг:   4,1 (Голосов: 55)
 Поблагодарили:   86
 Проверка:   Оформление проверено модератором 25 Янв 2018 08:57:56
Как cкачать  ·  Как раздать  ·  Правильно оформить  ·  Поднять ратио!  
GLR1778
Стаж: 6 лет
Сообщений: 28
Ratio: 223,835
100%
Когда-то скачивал ''Галактический экспресс 999'', осилил 11 эпизодов и
бросил. Лет 25 назад смотрелось бы наверно круче.
Надеюсь этот сериал будет интереснее.
Показать сообщения:   
Начать новую тему   Ответить на тему    Торрент-трекер NNM-Club -> Аниме с субтитрами -> Аниме (SD) Часовой пояс: GMT + 3
Страница 1 из 1