Классический форум-трекер
canvas not supported
Нас вместе: 4 114 654

Gun Frontier / Ган Фронтир [2002, TV, 13] DVDrip 480p raw


 
 
RSS
Начать новую тему   Ответить на тему    Торрент-трекер NNM-Club -> Аниме с субтитрами -> Аниме (SD)
Автор Сообщение
loki ®
Стаж: 9 лет 4 мес.
Сообщений: 4729
Ratio: 62,497
Поблагодарили: 37641
100%
Откуда: Днепр
roody.gif

Gun Frontier
Ган Фронтир

Жанр: приключения, драма, вестерн
Тип: TV-сериал
Продолжительность: 13 эп., 25 мин.
Дата премьеры / период выхода: c 28.03.2002 по 20.06.2002
Производство/студия:
Автор оригинала: Мацумото Лэйдзи
Режиссер: Дзэн Сойтиро
Сценарий: Араки Кэнъити
Качество видео: DVDRip
Формат: MKV
Видео: MPEG-4 DivX 5 (8 bits) Гайд для MPC-HC
Битрейт видео: ~1000-1200 Kbps; 29,970 fps
Размер кадра: 640x480 (4/3)
Аудио:
JAP; Vorbis; 44,1 KHz; 2ch; 96 Kbps
Субтитры:
RUS; TSUBASA-ANIME SRT (int)
ENG; AnimeSkyScraper SRT (int)
Описание:
Предыстория оригинального сериала "Космический пират капитан Харлок".
Это - резкая и бесплодная пустошь, где слабые не долго не живут.
Это - священная земля для истинных мужчин.
Это - Пистолетный Рубеж.
Капитан Харлок и самурай Тосиро прибывают в Соединенные Штаты на Западной Границе в поиске потерянного клана японских эммигрантов. По пути им попадается таинственная женщина Синунора, которая вызвалась помочь им....
01. Departure to Gun Frontier
02. The Destruction of the Dry City
03. The Song of Horsemeat In A Sandstorm
04. Duel In The Rain
05. The Song of Bowlegs
06. Samurai Sword In A Deserted Land
07. The Bedroom Dream
08. The Wild Utamaro
09. A Duel Between Winchester And Midland City
10. The Midget In Misery
11. Matchlock In Jamacity
12. Shitalnen
13. Tracks Towards the Future
Общее
Уникальный идентификатор : 188659140044808760801673113285281313587 (0x8DEE6DBFE74857FFADF40B9829ADF333)
Полное имя : [ass] gun frontier - 01[effaf9b4].mkv
Формат : Matroska
Версия формата : Version 4 / Version 2
Размер файла : 220 Мбайт
Продолжительность : 24 м.
Режим общего битрейта : Переменный
Общий поток : 1248 Кбит/сек
Дата кодирования : UTC 2010-02-22 21:41:31
Программа кодирования : mkvmerge v5.8.0 ('No Sleep / Pillow') built on Sep 30 2012 10:57:14
Библиотека кодирования : libebml v1.3.0 + libmatroska v1.4.0

Видео
Идентификатор : 1
Формат : MPEG-4 Visual
Параметр BVOP формата : Да
Параметр QPel формата : Нет
Параметр GMC формата : Без точки перехода
Параметр матрицы формата : Default (H.263)
Идентификатор кодека : V_MS/VFW/FOURCC / DX50
Идентификатор кодека/Подсказка : DivX 5
Продолжительность : 24 м.
Битрейт : 1127 Кбит/сек
Ширина : 640 пикселей
Высота : 480 пикселей
Соотношение сторон : 4:3
Режим частоты кадров : Постоянный
Частота кадров : 29,970 кадров/сек
Цветовое пространство : YUV
Субдискретизация насыщенности : 4:2:0
Битовая глубина : 8 бит
Тип развёртки : Прогрессивная
Метод сжатия : С потерями
Бит/(Пиксели*Кадры) : 0.122
Размер потока : 199 Мбайт (90%)
Библиотека кодирования : DivX 5.0.5 (UTC 2003-04-24)
Язык : Japanese
Default : Да
Forced : Нет

Аудио
Идентификатор : 2
Формат : Vorbis
Параметр Floor формата : 1
Идентификатор кодека : A_VORBIS
Продолжительность : 24 м.
Вид битрейта : Переменный
Битрейт : 96,0 Кбит/сек
Каналы : 2 канала
Частота : 44,1 КГц
Метод сжатия : С потерями
Размер потока : 17,0 Мбайт (8%)
Библиотека кодирования : libVorbis 1.0 (UTC 2002-07-17)
Язык : Japanese
Default : Да
Forced : Нет

Текст #1
Идентификатор : 3
Формат : UTF-8
Идентификатор кодека : S_TEXT/UTF8
Идентификатор кодека/Информация : UTF-8 Plain Text
Заголовок : TSUBASA-ANIME
Язык : Russian
Default : Да
Forced : Нет

Текст #2
Идентификатор : 4
Формат : UTF-8
Идентификатор кодека : S_TEXT/UTF8
Идентификатор кодека/Информация : UTF-8 Plain Text
Заголовок : AnimeSkyScraper
Язык : English
Default : Нет
Forced : Нет

Меню
00:00:00.000 : en:Chapter 1
00:01:31.867 : en:Chapter 2
00:13:56.334 : en:Chapter 3
00:22:48.034 : en:Chapter 4
00:23:09.701 : en:Chapter 5
00:24:40.701 : en:Chapter 6
Информационные ссылки: Official page || ANN || AniDB || MAL || World Art



Время раздачи: 24/7
[NNM-Club.ru]_Gun Frontier.torrent
 Торрент: Платиновая раздача  Зарегистрирован
 
Скачать


Примагнититься
 Зарегистрирован:   30 Апр 2013 18:30:39
 Размер:   2,73 GB  (
 Рейтинг:   4,6 (Голосов: 27)
 Поблагодарили:   44
 Проверка:   Оформление проверено модератором 30 Апр 2013 18:45:43
Как cкачать  ·  Как раздать  ·  Правильно оформить  ·  Поднять ратио!  
Показать сообщения:   
Начать новую тему   Ответить на тему    Торрент-трекер NNM-Club -> Аниме с субтитрами -> Аниме (SD) Часовой пояс: GMT + 3
Страница 1 из 1