Классический форум-трекер
canvas not supported
Нас вместе: 4 072 855

Межпланетная революция (1924) DVDRip


 
 
RSS
Начать новую тему   Ответить на тему    Торрент-трекер NNM-Club -> Мультфильмы -> Отечественные Мультфильмы (HD*Rip/LQ, DVDRip, SATRip, VHSRip)
Автор Сообщение
anonymous
Стаж: 10 лет 10 мес.
Сообщений: 3148
Поблагодарили: 78923
0%
Межпланетная революция (1924) DVDRip
Страна: СССР
Жанр: фантастика
Режиссер: З. Комисаренко

Описание:
Мультфильм "Межпланетная революция" первоначально задумывалась как эффектная анимационная вставка в "Аэлиту", которая снималась в то же самое время. Однако Протазанов решил не усложнять и без того насыщенную картину еще большими формалистическими изысками, и мультипликаторы-новаторы Зенон Комисаренко, Николай Ходатаев и Юрий Меркулов создали совершенно самостоятельный мульт на сходную, но несколько иную тему. Напуганные наступлением пролетариата по планете Земля, империалисты и буржуины всех стран улетают в космос в надежде спасти себя и свои награбленные капиталы. Но в отличие от "Аэлиты", где на Марсе происходит стихийное свержение местной монархической власти, в "Межпланетной революции" трудовой мозолистый кулак настигает капиталистов, попытавшихся укрыться от власти пролетариата в космосе. Мультфильм создан в новаторской для своего времени манере "перекладки". Плоские марионетки перекладываются от кадра к кадру так, что возникает эффект движения. В наши дни эта технология используется Юрием Норштейном ("Сказка сказок", "Ежик в тумане").


Звуковые дорожки современные, первая звуковая дорожка в исполнении: группы "Won James Won" а вторая в исполнении группы "Sience Kit" сыграны рамках проекта "Великий Немой" на фестивале "Космический рейс".

Записаны там же, на фестивале во время живого сопровождения фильма.

Продолжительность: 00:07:21
Видеокодек: XviD
Битрейт видео: ~ 1900 кб/c
Размер кадра: 640x480
Качество видео: DVDRip
Аудиокодек: АС3.2
Битрейт аудио: 384 Kbps
Язык: немой, музыкальное сопровождение
Код: выделить все
Общее
Полное имя                               : Межпланетная революция.avi
Формат                                   : AVI
Формат/Информация                        : Audio Video Interleave
Размер файла                             : 140 Мбайт
Продолжительность                        : 7 м. 21 с.
Общий поток                              : 2666 Кбит/сек
Программа кодирования                    : VirtualDubMod 1.5.10.2 (build 2540/release)
Библиотека кодирования                   : VirtualDubMod build 2540/release

Видео
Идентификатор                            : 0
Формат                                   : MPEG-4 Visual
Профиль формата                          : Advanced Simple@L5
Настройки формата                        : BVOP2
Параметр BVOP формата                    : 2
Параметр QPel формата                    : Нет
Параметр GMC формата                     : Без точки перехода
Параметр матрицы формата                 : Default (H.263)
Режим смешивания                         : Сжатый битовый поток
Идентификатор кодека                     : XVID
Идентификатор кодека/Подсказка           : XviD
Продолжительность                        : 7 м. 21 с.
Битрейт                                  : 1947 Кбит/сек
Ширина                                   : 640 пикселей
Высота                                   : 480 пикселей
Соотношение сторон                       : 4:3
Частота кадров                           : 25,000 кадров/сек
Цветовое пространство                    : YUV
Субдискретизация насыщенности            : 4:2:0
Битовая глубина                          : 8 бит
Тип развёртки                            : Прогрессивная
Метод сжатия                             : С потерями
Бит/(Пиксели*Кадры)                      : 0.254
Размер потока                            : 102 Мбайт (73%)
Библиотека кодирования                   : XviD 1.2.0.dev47 (UTC 2006-11-01)

Аудио #1
Идентификатор                            : 1
Формат                                   : AC-3
Формат/Информация                        : Audio Coding 3
Идентификатор кодека                     : 2000
Продолжительность                        : 7 м. 21 с.
Вид битрейта                             : Постоянный
Битрейт                                  : 384 Кбит/сек
Каналы                                   : 6 каналов
Расположение каналов                     : Front: L C R, Side: L R, LFE
Частота                                  : 48,0 КГц
Частота кадров                           : 31,250 кадров/сек (1536 SPF)
Битовая глубина                          : 16 бит
Метод сжатия                             : С потерями
Размер потока                            : 20,2 Мбайт (14%)
Выравнивание                             : Разделение по промежуткам
Продолжительность промежутка             : 40  мс. (1,00 видеокадр)
Время предзагрузки промежутка            : 500  мс.
ServiceKind/String                       : Complete Main

Аудио #2
Идентификатор                            : 2
Формат                                   : MPEG Audio
Версия формата                           : Version 1
Профиль формата                          : Layer 3
Настройки формата                        : Joint stereo / MS Stereo
Идентификатор кодека                     : 55
Идентификатор кодека/Подсказка           : MP3
Продолжительность                        : 7 м. 21 с.
Вид битрейта                             : Постоянный
Битрейт                                  : 320 Кбит/сек
Каналы                                   : 2 канала
Частота                                  : 48,0 КГц
Метод сжатия                             : С потерями
Размер потока                            : 16,8 Мбайт (12%)
Выравнивание                             : Соединение по промежуткам
Продолжительность промежутка             : 40  мс. (1,00 видеокадр)
Время предзагрузки промежутка            : 504  мс.
Скриншоты:


Время раздачи: 24/7
[NNM-Club.me]_rev.torrent
 Торрент: Платиновая раздача  Зарегистрирован
 
Скачать


Примагнититься
 Зарегистрирован:   28 Авг 2018 08:23:46
 Размер:   140 MB  (
 Рейтинг:   4,7 (Голосов: 34)
 Поблагодарили:   126
 Проверка:   Оформление проверено модератором 28 Авг 2018 08:33:36
Как cкачать  ·  Как раздать  ·  Правильно оформить  ·  Поднять ратио!  
boiberker666
Стаж: 11 лет 2 мес.
Сообщений: 27
Ratio: 1,534
Поблагодарили: 86
100%
вторая дорожка лучше )
bokken
Стаж: 11 лет 2 мес.
Сообщений: 158
Ratio: 36,362
Поблагодарили: 488
100%
Откуда: Москва
ussr.gif
Кто хотел? Поставил на раздачу.
v9o4v9a1n

Online
Стаж: 7 лет 11 мес.
Сообщений: 545
Ratio: 1,956
100%
albania.gif
Это ТО, чем детишек до сих пор пугают?
Показать сообщения:   
Начать новую тему   Ответить на тему    Торрент-трекер NNM-Club -> Мультфильмы -> Отечественные Мультфильмы (HD*Rip/LQ, DVDRip, SATRip, VHSRip) Часовой пояс: GMT + 3
Страница 1 из 1