Классический форум-трекер
canvas not supported
Нас вместе: 4 103 702

Uchuu Koukyoushi Maetel: Ginga Tetsudou 999 Gaiden / Space Symphonic Poem Maetel Galaxy Express 999 Side Story / Космическая симфония Мэйтел [2004,TV,13] DVDrip 480p raw


 
 
RSS
Начать новую тему   Ответить на тему    Торрент-трекер NNM-Club -> Аниме с субтитрами -> Аниме (SD)
Автор Сообщение
loki ®
Стаж: 9 лет 2 мес.
Сообщений: 4729
Ratio: 62,855
Поблагодарили: 37389
100%
Откуда: Днепр
roody.gif
Uchuu Koukyoushi Maetel: Ginga Tetsudou 999 Gaiden
Space Symphonic Maetel Galaxy Express 999
Космическая симфония Мэйтел

Жанр: приключения, фантастика, драма
Тип: TV-сериал
Продолжительность: 13 эп., 25 мин.
Дата премьеры / период выхода: c 06.08.2004 по 20.06.2005
Производство/студия: Avex Inc.
Автор оригинала: Мацумото Лэйдзи
Режиссер: Масаки Синъити
Сценарий: Камио Муги
Качество видео: DVDRip
Формат: MKV
Видео: MPEG-4 XviD (8 bits) Гайд для MPC-HC
Битрейт видео: ~1400 Kbps; 25,000 fps
Размер кадра: 640x352 (16:9)
Аудио:
JAP; AC3; 48.0 KHz; 2ch; 192 Kbps
Тип субтитров: Raw
Субтитры:
RUS; SRT (int)
Описание:
Maetel покинула свою мать и свою родную планету, обреченную и замерзающую La Metal, где люди должны становиться киборгами, чтобы выжить. Когда её просят вернуться, перед ней встает выбор: следовать за матерью (и превратиться в робота, презирающего людей) или убежать и бороться с людьми против машин. Но она не одна. Если она примет дружбу роботов, желающих мира, и будет сопротивляться тем, кто думает, что плоти и крови достаточно, чтобы называться человеком, то у нее еще есть шанс найти свой путь.
© Yakyza World Art
01. Departure of «Fate»
02. Nazca's «Passion»
03. The Night Before the «Revolution»
04. «Rhapsody» in Gold
05. Promethium's «Magic Flute»
06. Laurela's «Requiem»
07. The Path to «My Homeland»
08. «Funeral March» for Mother
09. La Metal «Spring»
10. «Giant» of Lightning
11. «Hero» Leopard
12. Warriors' «Music of Separation»
13. The «New World» Becomes Far
Общее
Уникальный идентификатор : 204846942152508921171706802895378182725 (0x9A1C16037DAEF472952723D48AA7F245)
Полное имя : Space_Symphony_Maetel_01.mkv
Формат : Matroska
Версия формата : Version 4 / Version 2
Размер файла : 273 Мбайт
Продолжительность : 23 м.
Общий поток : 1614 Кбит/сек
Дата кодирования : UTC 2010-02-22 21:41:31
Программа кодирования : mkvmerge v5.8.0 ('No Sleep / Pillow') built on Sep 30 2012 10:57:14
Библиотека кодирования : libebml v1.3.0 + libmatroska v1.4.0

Видео
Идентификатор : 1
Формат : MPEG-4 Visual
Профиль формата : Advanced Simple@L5
Параметр BVOP формата : Да
Параметр QPel формата : Нет
Параметр GMC формата : Без точки перехода
Параметр матрицы формата : Default (H.263)
Идентификатор кодека : V_MS/VFW/FOURCC / XVID
Идентификатор кодека/Подсказка : XviD
Продолжительность : 23 м.
Битрейт : 1390 Кбит/сек
Ширина : 640 пикселей
Высота : 352 пикселя
Соотношение сторон : 16:9
Режим частоты кадров : Постоянный
Частота кадров : 25,000 кадров/сек
Цветовое пространство : YUV
Субдискретизация насыщенности : 4:2:0
Битовая глубина : 8 бит
Тип развёртки : Прогрессивная
Метод сжатия : С потерями
Бит/(Пиксели*Кадры) : 0.247
Размер потока : 235 Мбайт (86%)
Библиотека кодирования : XviD 1.1.2 (UTC 2006-11-01)
Default : Да
Forced : Нет

Аудио
Идентификатор : 2
Формат : AC-3
Формат/Информация : Audio Coding 3
Профиль формата : Dolby Digital
Расширение режима : CM (complete main)
Параметр Endianness формата : Big
Режим смешивания : Header stripping
Идентификатор кодека : A_AC3
Продолжительность : 23 м.
Вид битрейта : Постоянный
Битрейт : 192 Кбит/сек
Каналы : 2 канала
Расположение каналов : Front: L R
Частота : 48,0 КГц
Битовая глубина : 16 бит
Метод сжатия : С потерями
Размер потока : 32,5 Мбайт (12%)
Default : Да
Forced : Нет

Текст
Идентификатор : 3
Формат : UTF-8
Идентификатор кодека : S_TEXT/UTF8
Идентификатор кодека/Информация : UTF-8 Plain Text
Язык : Russian
Default : Да
Forced : Нет
Информационные ссылки: ANN || AniDB || MAL || World Art



Время раздачи: 24/7
[NNM-Club.ru]_Space Symphony Maetel.torrent
 Торрент: Платиновая раздача  Зарегистрирован
 
Скачать


Примагнититься
 Зарегистрирован:   30 Апр 2013 21:44:51
 Размер:   3,97 GB  (
 Рейтинг:   4,5 (Голосов: 22)
 Поблагодарили:   36
 Проверка:   Оформление проверено модератором 30 Апр 2013 21:57:56
Как cкачать  ·  Как раздать  ·  Правильно оформить  ·  Поднять ратио!  
Onee_Tsume
 
Стаж: 7 лет 10 мес.
Сообщений: 227
Ratio: 10,139
100%
Предыстория "Экспресса"??? В прочем, всё равно, тяну.
loki ®
Стаж: 9 лет 2 мес.
Сообщений: 4729
Ratio: 62,855
Поблагодарили: 37389
100%
Откуда: Днепр
roody.gif
Onee_Tsume писал(а): Перейти к сообщению
Предыстория "Экспресса"???

Ну да, как то так.
Kannagi
 
Стаж: 9 лет 3 мес.
Сообщений: 124
Ratio: 7,941
Поблагодарили: 322
88.05%
pirates.png
А нету http://www.world-art.ru/animation/animation.php?id=3841 всего с сабами?
loki ®
Стаж: 9 лет 2 мес.
Сообщений: 4729
Ratio: 62,855
Поблагодарили: 37389
100%
Откуда: Днепр
roody.gif
Kannagi
Перевода, похоже, нет.
Onee_Tsume
 
Стаж: 7 лет 10 мес.
Сообщений: 227
Ratio: 10,139
100%
Kannagi писал(а): Перейти к сообщению
А нету http://www.world-art.ru/animation/animation.php?id=3841 всего с сабами?

vados loki, Можно попросить посмотреть наличие ансаба к "Королеве" (в любом его варианте).
loki ®
Стаж: 9 лет 2 мес.
Сообщений: 4729
Ratio: 62,855
Поблагодарили: 37389
100%
Откуда: Днепр
roody.gif
Onee_Tsume
Максимум перевели Live-eviL (13ть серий), там же есть на них и русаб.
Об полном ансабе даже упоминаний не встречал. В прочем мой опыт в поиске иностранных сабов близок к нулю.
Может кто чего знает???
Показать сообщения:   
Начать новую тему   Ответить на тему    Торрент-трекер NNM-Club -> Аниме с субтитрами -> Аниме (SD) Часовой пояс: GMT + 3
Страница 1 из 1