Классический форум-трекер
canvas not supported
Нас вместе: 4 093 458

Дневники вампира / The Vampire Diaries (2013) HDTVRip [Сезон 4, серия 21] [napaBo3uk]


 
 
RSS
Начать новую тему   Ответить на тему    Торрент-трекер NNM-Club -> Архив торрентов -> Архив Сериалов, а также Архив Старого многосерийного кино до 90-х
Автор Сообщение
napaBo3uk ®
Стаж: 9 лет 11 мес.
Сообщений: 13
Ratio: 21,744
Поблагодарили: 857
100%
ukraine.gif
Дневники вампира / The Vampire Diaries (2013) HDTVRip [Сезон 4, серия 21] [napaBo3uk]
Русское название: Дневники вампира
Оригинальное название: The Vampire Diaries
Год выпуска: 2013
Жанр: Мистический триллер, вампиры, ужасы, фэнтези

Перевод: Одноголосый закадровый, любительский [napaBo3uk]



Режиссер: Маркос Сига, Роб Харди, Дэвид Фон Энкен, Дж. Миллер Тобин, Джон Беринг, Джошуа Батлер, Джон Дал, Лиз Фридлендер, Крис Грисмер, Венди Станцлер, Кевин Брэй
Актеры: Нина Добрев, Пол Уэсли, Иэн Сомерхолдер, Стивен Р. МакКуин, Катерина Грэхэм, Кэндис Аккола, Зак Рериг, Майкл Тревино, Джозеф Морган, Сара Каннинг, Кайла Юэлл, Дэвид Андерс, Клер Холт, Тейлор Кинни, Келли Ху, Роберт Пралго, Брайтон МакКлур, Михаэлла МакМанус, Джэсмин Гай, Рэнди Дж. Гудвин, Миа Киршнер, Лорен Коэн, Крис Дж. Джонсон, Себастьян Роше, Торри ДеВито, Бьянка Лоусон, Джек Коулмэн, Доун Оливе

Описание фильма:
В центре внимания по-прежнему Елена, которая пожертвовав собой ради спасения Мета, становится вампиром. Ее разрушают неконтролируемые чувства жажды крови, ненависти и раскаянья. Как изменить то, кто ты и что чувствуешь? Как принять свою новую сущность? Стефан и Деймон пытаются помочь Елене, но, как всегда, каждый своими методами. Елена и ее друзья вступают на финишную прямую – выпускной год, они заканчивают старшую школу, заканчивается жизнь в Мистик Фоллс. Это переломный момент - куда пойти и кем быть, разойдутся ли их пути? Связь с родным городом приобретает более глубокий смысл, когда новое зло приходит уничтожить Мистик Фоллс

Сэмпл: Скачать

Продолжительность: ~00:42:00
Качество видео: HDTVRip
Формат: AVI
Видео: 720x400 (16:9), 23.976 fps, XviD ~1253 kbps, ~0.186 bit/pixel
Аудио Rus: 48 kHz, MPEG Layer 3, 2 ch, 160 kbps
Аудио Eng: 48 kHz, MPEG Layer 3, 2 ch, 160 kbps
General
Complete name : C:\Users\ksang\Downloads\sample_tvd.avi
Format : AVI
Format/Info : Audio Video Interleave
File size : 6.20 MiB
Duration : 34s 952ms
Overall bit rate : 1 488 Kbps
Writing application : VirtualDubMod 1.5.10.2 (build 2540/release)
Writing library : VirtualDubMod build 2540/release
Video #0
ID : 0
Format : MPEG-4 Visual
Format profile : Advanced Simple@L5
Format settings, BVOP : 2
Format settings, QPel : No
Format settings, GMC : No warppoints
Format settings, Matrix : Default (H.263)
Muxing mode : Packed bitstream
Codec ID : XVID
Codec ID/Hint : XviD
Duration : 34s 952ms
Bit rate : 1 151 Kbps
Width : 720 pixels
Height : 400 pixels
Display aspect ratio : 16:9
Original display aspect ratio : 16:9
Frame rate : 23.976 fps
Color space : YUV
Chroma subsampling : 4:2:0
Bit depth : 8 bits
Scan type : Progressive
Compression mode : Lossy
Bits/(Pixel*Frame) : 0.167
Stream size : 4.80 MiB (77%)
Writing library : XviD 64
Audio #1
ID : 1
Format : MPEG Audio
Format version : Version 1
Format profile : Layer 3
Mode : Joint stereo
Mode extension : MS Stereo
Codec ID : 55
Codec ID/Hint : MP3
Duration : 34s 952ms
Bit rate mode : Constant
Bit rate : 160 Kbps
Channel(s) : 2 channels
Sampling rate : 48.0 KHz
Compression mode : Lossy
Delay relative to video : 16ms
Stream size : 683 KiB (11%)
Alignment : Split accross interleaves
Interleave, duration : 42 ms (1.01 video frame)
Interleave, preload duration : 500 ms
Audio #2
ID : 2
Format : MPEG Audio
Format version : Version 1
Format profile : Layer 3
Mode : Joint stereo
Mode extension : MS Stereo
Codec ID : 55
Codec ID/Hint : MP3
Duration : 34s 952ms
Bit rate mode : Constant
Bit rate : 160 Kbps
Channel(s) : 2 channels
Sampling rate : 48.0 KHz
Compression mode : Lossy
Delay relative to video : 16ms
Stream size : 683 KiB (11%)
Alignment : Split accross interleaves
Interleave, duration : 42 ms (1.01 video frame)
Interleave, preload duration : 500 ms
Все релизы "Дневники Вампира"
Скриншоты:


Время раздачи: 24/7
[NNM-Club.ru]_The.Vampire.Diaries.S04E21.HDTVrip.napaBo3uk.avi.torrent
 Торрент:   Зарегистрирован
 
Зарегистрируйтесь и скачайте торрент!
18,7 KB

 Зарегистрирован:   03 Май 2013 15:26:11
 Размер:   471 MB  (
 Рейтинг:   4,7 (Голосов: 18)
 Поблагодарили:   52
 Проверка:   Оформление проверено модератором 03 Май 2013 16:22:00
Как cкачать  ·  Как раздать  ·  Правильно оформить  ·  Поднять ратио!  
_salazar_
Стаж: 6 лет 9 мес.
Сообщений: 468
Ratio: 52,026
Поблагодарили: 7068
100%
Откуда: Royal Hell
pirates.png
звук хороший
Топик был перенесен из форума Дневники вампира / Настоящая кровь в форум Архив Сериалов

Причина переноса: раздающего не было 3 месяца.

Исправил релиз - напиши ЛС DriverV, дав ссылку на релиз.
Если нет ответа 24 часа - нажми на кнопку "Обратить внимание модераторов".
Показать сообщения:   
Начать новую тему   Ответить на тему    Торрент-трекер NNM-Club -> Архив торрентов -> Архив Сериалов, а также Архив Старого многосерийного кино до 90-х Часовой пояс: GMT + 3
Страница 1 из 1