Классический форум-трекер
canvas not supported
Нас вместе: 4 095 210

ЗА РОДИНУ! Часть 2/4 (Беспокойное хозяйство; Двое и война; В шесть часов вечера после войны; Последняя исповедь) (1946, 1944, 2007, 2006) 4хDVD9 [Коллекционное издание]


 
 
RSS
Начать новую тему   Ответить на тему    Торрент-трекер NNM-Club -> Коллекции / *логии -> Отечественное кино (коллекции / *логии)
Автор Сообщение
almikl ®
Куратор Детского.
Модератор Видео.
RG Всё лучшее - детям!
Uploader 500+
 
Стаж: 12 лет 8 мес.
Сообщений: 4823
Ratio: 359,993
Поблагодарили: 111147
100%
Откуда: Дааалекое Подмосковье
russia.gif
ЗА РОДИНУ! Часть 2/4: Беспокойное хозяйство; Двое и война; В шесть часов вечера после войны; Последняя исповедь; ИКПЦ "Обелиск"; Мемуары ветеранов: моя война - диск 2. КОЛЛЕКЦИОННОЕ ИЗДАНИЕ. 4хDVD9
Описание: Война всегда начинается внезапно. В 1941 году началась самая страшная - Великая Отечественная. День победы СССР над фашистской Германией в Великую Отечественную Войну был и остаётся одним из самых почитаемых праздников в нашей стране.
В серию сборников "За Родину" вошли фильмы наиболее полно передающие атмосферу того героического времени. Это и самые последние современные художественные фильмы о войне, документальная хроника военных лет и фильмы военного времени, ставшие классикой. Эти сборники будут интересны и молодому поколению и, безусловно, станут прекрасным подарком нашим любимым родителям.

Дополнительная информация: Это лицензионное издание на шестнадцати дисках, по четыре диска в коробке. Прилагаются сканы обложек каждой коробки с фильмом, каждой "супер-коробки", а также плакатов времён ВОВ, типа "Родина-Мать зовёт!", которыми комплектовалось это издание.

Качество: DVD9
Формат: DVD Video
Видео: PAL 4:3 (720x576) VBR
Аудио: Russian (Dolby AC3, 2 ch)

Все релизы ЗА РОДИНУ! на NNM-CLUB
Беспокойное хозяйство
Год выпуска: 1946
Страны: СССР
Жанр: мюзикл, комедия, военный

Продолжительность: 01:26:42

Режиссер: Михаил Жаров
Сценарий: Петр Тур, Леонид Тур
Оператор: Валентин Павлов
Композитор : Юрий Милютин
Художник: Борис Чеботарев
Монтаж: Г. Славатинская

В ролях: Людмила Целиковская (ефрейтор Тоня), Александр Граве (рядовой Огурцов), Михаил Жаров (старшина Семибаб), Виталий Доронин (летчик Крошкин), Юрий Любимов (французский летчик Лярошель), Владимир Балашов (французский летчик Дюрэн), Георгий Светлани (рядовой Сороконожкин), Владимир Уральский (рядовой Гвоздарев)


Описание: Трогательная комедия — первый фильм известного актера Михаила Жарова — знакомит нас с рядовыми бойцами, взявшими на себя заботу по обслуживанию бутафорского аэродрома, отвлекающего внимание врага.Ефрейтора Тоню любят два летчика — Герой Советского Союза Крошкин и французский офицер Лярошель, которые навещают девушку между боями. Фильм, в частности, показывает кому и почему она отдаст своё предпочтение.
Зрители: СССР 17.8 млн
Премьера (мир): 15 мая 1946, ...
Релиз на DVD: 2 апреля 2009, «Русское счастье», ...

В шесть часов вечера после войны
Год выпуска: 1944
Производство: СССР
Жанр: мюзикл, мелодрама, военный

Продолжительность: 01:21:09

Режиссер: Иван Пырьев
Сценарий: Виктор Гусев
Оператор: Валентин Павлов
Композитор : Тихон Хренников
Художник: Борис Чеботарев
Монтаж: Анна Кулганек

В ролях: Евгений Самойлов (лейтенант Василий Кудряшов), Марина Ладынина (Варя Панкова), Иван Любезнов (лейтенант Павел Демидов), Ариадна Лысак (Феня, подруга Вари), Елена Савицкая (тетя Катя, управдом), Александр Антонов (командир), Людмила Семенова (зенитчица), Тихон Хренников


Описание: Расставаясь, они обещали друг другу встретиться в шесть часов вечера после войны на Каменном мосту в Москве. Пять долгих и невыносимо тяжелых лет артиллерист Вася Кудряшов и зенитчица Варя Панкова ждали этой встречи. Верили в нее даже тогда, когда смерть подходила слишком близко. И эта вера помогла им выжить. Судьба вознаградила молодых людей за силу, мужество и терпение…
Зрители: СССР 26.1 млн
Премьера (мир): 16 ноября 1944, ...
Релиз на DVD: 7 апреля 2005, «Союз-Видео», ...

Фильм историко-культурного поискового центра "Обелиск
Год выпуска: 200?
Производство: Россия
Жанр: Документальный

Продолжительность: 00:16:56

Описание: "Фильм историко-культурного поискового центра "Обелиск"".
Небольшой документальный фильм о не захороненных солдатах Второй Мировой Войны и деятельности историко-культурного поискового центра "Обелиск". Достаточно посмотреть на скрины, чтобы понять о чём именно фильм.

Качество: DVD9
Формат: DVD Video
Видео: PAL 4:3 (720x576) VBR
Аудио: Russian (Dolby AC3, 2 ch)

Субтитры: нет
Title: Elements
Size: 6.64 Gb ( 6 962 690 KBytes ) - DVD-9
Enabled regions: 1, 2, 3, 4, 5, 6, 7, 8

VTS_01 :
Play Length: 01:26:42+01:21:09+00:16:56
Video: PAL 4:3 (704x576) VBR
Audio:
English (Dolby AC3, 2 ch)

VTS_02 :
Play Length: 00:00:09
Video: PAL 4:3 (704x576) VBR
Общее
Полное имя : G:\DVD\ZA_RODINU_2nd_Boxed_Set\ZA_RODINU_2nd_Boxed_Set__Bespokoynoe_Hozyaystvo_+_V_6_Chasov_Vechera_Posle_Voyny_+_Obelisk__DVD9\VIDEO_TS\VTS_01_2.VOB
Формат : MPEG-PS
Размер файла : 1000 Мбайт
Продолжительность : 24 м.
Режим общего битрейта : Переменный
Общий поток : 5615 Кбит/сек

Видео
Идентификатор : 224 (0xE0)
Формат : MPEG Video
Версия формата : Version 2
Профиль формата : Main@Main
Параметр BVOP формата : Да
Параметр матрицы формата : По умолчанию
Параметр GOP формата : M=3, N=13
Продолжительность : 24 м.
Вид битрейта : Переменный
Битрейт : 5183 Кбит/сек
Максимальный битрейт : 8000 Кбит/сек
Ширина : 720 пикселей
Высота : 576 пикселей
Соотношение сторон : 4:3
Частота кадров : 25,000 кадров/сек
Стандарт вещания : PAL
Цветовое пространство : YUV
Субдискретизация насыщенности : 4:2:0
Битовая глубина : 8 бит
Тип развёртки : Чересстрочная
Порядок развёртки : Верхнее поле первое
Метод сжатия : С потерями
Бит/(Пиксели*Кадры) : 0.500
Размер потока : 923 Мбайт (92%)
Основные цвета : BT.601 PAL
Характеристики трансфера : BT.470 System B, BT.470 System G
Коэффициенты матрицы : BT.601

Аудио
Идентификатор : 189 (0xBD)-128 (0x80)
Формат : AC-3
Формат/Информация : Audio Coding 3
Расширение режима : CM (complete main)
Параметр Endianness формата : Big
Режим смешивания : DVD-Video
Продолжительность : 24 м.
Вид битрейта : Постоянный
Битрейт : 320 Кбит/сек
Каналы : 2 канала
Расположение каналов : Front: L R
Частота : 48,0 КГц
Битовая глубина : 16 бит
Метод сжатия : С потерями
Задержка видео : -216 мс.
Размер потока : 57,0 Мбайт (6%)

Меню
Бонусы: нет
Скриншоты:





Сильнее огня
Год выпуска: 2007
Производство: Россия , Украина
Жанр: боевик, драма, военный

Продолжительность: 01:28:50

Режиссер: Виталий Воробьев, Евгений Звездаков
Сценарий: Сергей Сергеев, Вера Федорова, Сергей Кучков
Оператор: Георгий Блинов, Федор Ордовский
Композитор : Алексей Карпов

В ролях: Никита Зверев (Виктор Суханов), Татьяна Арнтгольц (Марина), Владимир Стержаков (Пузанов), Борис Щербаков (Самойлов), Андрей Фролов (Саша Прохоров), Максим Заусалин (Тёма Шальных), Александр Ильин мл. (Семен Ефимов), Антон Капанин (Стёпа Коврига)


Описание: Действие фильма начинается 21 июня 1941 года, когда немецкие войска уже скрыто стояли возле границы Советского Союза. Герои фильма — молодые артиллеристы, оказываются в центре событий с первых часов войны. Утратив вооружение, совершив побег из немецкого плена, они принимают бой с большими силами противника. Дальнейшие действия кинокартины происходит уже в 1942-1943 годах. Главных героев ожидают еще более опасные и драматические испытания.
Премьера (РФ): 26 апреля 2007, «Московское Кино»
Релиз на DVD: 16 июня 2009, «Lizard Cinema Trade», ...


Качество: DVD9
Формат: DVD Video
Видео: PAL 4:3 (720x576) VBR
Аудио: Russian (Dolby AC3, 2 ch)

Субтитры: нет
Title: Elements
Size: 4.59 Gb ( 4 811 078 KBytes ) - DVD-9
Enabled regions: 1, 2, 3, 4, 5, 6, 7, 8

VTS_01 :
Play Length: 01:28:50+00:00:09
Video: PAL 4:3 (704x576) VBR
Audio:
Russian (Dolby AC3, 2 ch)
Общее
Полное имя : G:\DVD\ZA_RODINU_2nd_Boxed_Set\ZA_RODINU_2nd_Boxed_Set__Dvoe_i_Voyna_DVD9\VIDEO_TS\VTS_01_2.VOB
Формат : MPEG-PS
Размер файла : 1000 Мбайт
Продолжительность : 19 м.
Режим общего битрейта : Переменный
Общий поток : 7318 Кбит/сек

Видео
Идентификатор : 224 (0xE0)
Формат : MPEG Video
Версия формата : Version 2
Профиль формата : Main@Main
Параметр BVOP формата : Да
Параметр матрицы формата : Выборочная
Параметр GOP формата : M=3, N=15
Продолжительность : 19 м.
Вид битрейта : Переменный
Битрейт : 6980 Кбит/сек
Максимальный битрейт : 9000 Кбит/сек
Ширина : 720 пикселей
Высота : 576 пикселей
Соотношение сторон : 4:3
Частота кадров : 25,000 кадров/сек
Стандарт вещания : PAL
Цветовое пространство : YUV
Субдискретизация насыщенности : 4:2:0
Битовая глубина : 8 бит
Тип развёртки : Чересстрочная
Порядок развёртки : Нижнее поле первое
Метод сжатия : С потерями
Бит/(Пиксели*Кадры) : 0.673
Размер потока : 954 Мбайт (95%)

Аудио
Идентификатор : 189 (0xBD)-128 (0x80)
Формат : AC-3
Формат/Информация : Audio Coding 3
Расширение режима : CM (complete main)
Параметр Endianness формата : Big
Режим смешивания : DVD-Video
Продолжительность : 19 м.
Вид битрейта : Постоянный
Битрейт : 192 Кбит/сек
Каналы : 2 канала
Расположение каналов : Front: L R
Частота : 48,0 КГц
Битовая глубина : 16 бит
Метод сжатия : С потерями
Задержка видео : -192 мс.
Размер потока : 26,2 Мбайт (3%)

Меню
Бонусы: нет
Скриншоты:


Последняя исповедь (сериал)
Год выпуска: 2006
Производство: Россия
Жанр: драма, история

Продолжительность: 00:50:48+00:51:13+00:51:53+00:52:07

Режиссер: Сергей Лялин
Сценарий: Евгений Котов
Оператор: Сергей Зубиков
Композитор : Владимир Дашкевич

В ролях: Иван Викулов (Олег Кошевой), Эльдар Лебедев (Сергей Тюленин), Анастасия Панина (Любовь Шевцова), Сергей Лактюнькин (Иван Земнухов), Людмила Колесникова (Валя Борц), Владимир Коренев (немецкий генерал), Светлана Иванова (Надя Тюленина), Ева Авеева (Нина Иванцова)


Описание: Олег Кошевой, Любовь Шевцова, Ульяна Громова, Сергей Тюленин — обычные советские старшеклассники, жившие в маленьком украинском городке Краснодоне. Они мечтали о любви, строили планы на будущее. Но их жизнь перевернула война. На оккупированной фашистами территории ребята создают организацию сопротивления «Молодая гвардия» и ведут героическую борьбу с захватчиками.

Качество: DVD9
Формат: DVD Video
Видео: PAL 4:3 (720x576) VBR
Аудио: Russian (Dolby AC3, 6 ch)
Субтитры: нет
Title: Elements
Size: 7.11 Gb ( 7 456 950 KBytes ) - DVD-9
Enabled regions: 1, 2, 3, 4, 5, 6, 7, 8

VTS_01 :
Play Length: 00:50:48+00:51:13+00:51:53+00:52:07+00:00:09
Video: PAL 4:3 (704x576) VBR
Audio:
Russian (Dolby AC3, 6 ch)
Общее
Полное имя : G:\DVD\ZA_RODINU_2nd_Boxed_Set\ZA_RODINU_2nd_Boxed_Set__Poslednyaya_Ispoved_DVD9\VIDEO_TS\VTS_01_2.VOB
Формат : MPEG-PS
Размер файла : 1000 Мбайт
Продолжительность : 19 м.
Общий поток : 7148 Кбит/сек

Видео
Идентификатор : 224 (0xE0)
Формат : MPEG Video
Версия формата : Version 2
Профиль формата : Main@Main
Параметр BVOP формата : Да
Параметр матрицы формата : По умолчанию
Параметр GOP формата : M=3, N=12
Продолжительность : 19 м.
Битрейт : 6558 Кбит/сек
Максимальный битрейт : 9000 Кбит/сек
Ширина : 720 пикселей
Высота : 576 пикселей
Соотношение сторон : 4:3
Частота кадров : 25,000 кадров/сек
Стандарт вещания : PAL
Цветовое пространство : YUV
Субдискретизация насыщенности : 4:2:0
Битовая глубина : 8 бит
Тип развёртки : Чересстрочная
Порядок развёртки : Верхнее поле первое
Метод сжатия : С потерями
Бит/(Пиксели*Кадры) : 0.632
Размер потока : 917 Мбайт (92%)

Аудио
Идентификатор : 189 (0xBD)-128 (0x80)
Формат : AC-3
Формат/Информация : Audio Coding 3
Расширение режима : CM (complete main)
Параметр Endianness формата : Big
Режим смешивания : DVD-Video
Продолжительность : 19 м.
Вид битрейта : Постоянный
Битрейт : 448 Кбит/сек
Каналы : 6 каналов
Расположение каналов : Front: L C R, Side: L R, LFE
Частота : 48,0 КГц
Битовая глубина : 16 бит
Метод сжатия : С потерями
Задержка видео : -320 мс.
Размер потока : 62,7 Мбайт (6%)

Меню
Бонусы: нет
Скриншоты:


Мемуары ветеранов: моя война - диск 2
Год выпуска: 2006
Жанр: Документальный

Продолжительность: 03:55:00

Описание: Этот телевизионный документальный проект, посвящённый участникам Великой Отечественной Войны, также представляет собой уникальный видео архив воспоминаний участников и свидетелей Великой Отечественной Войны - генералов, простых солдат, работников тыла. В каждой серии ветераны ВОВ вспоминают свою жизнь до войны и во время войны. Все сложности, радости и будни военного времени в рассказах участников событий. Война в воспоминании оставшихся в живых ветеранов. Это наша история, наша память и наша слава. [Извините, аннотацию писал какой-то потс неграмотный, но фильм познавательный - прим. релизера]

Качество: DVD9
Формат: DVD Video
Видео: PAL 4:3 (720x576) CBR
Аудио: Russian (Dolby AC3, 2 ch)

Субтитры: нет
Title: Elements
Size: 6.92 Gb ( 7 252 830 KBytes ) - DVD-9
Enabled regions: 1, 2, 3, 4, 5, 6, 7, 8

VTS_01 :
Play Length: 00:27:07+00:25:16+00:27:06+00:26:24+00:25:34+00:25:33+00:25:32+00:27:02+00:25:54
Video: PAL 4:3 (704x576) CBR
Audio:
English (Dolby AC3, 2 ch)

VTS_02 :
Play Length: 00:00:09
Video: PAL 4:3 (704x576) VBR
Общее
Полное имя : G:\DVD\ZA_RODINU_2nd_Boxed_Set\ZA_RODINU_2nd_Boxed_Set__Memuary_Veteranov_Moya_Voyna_Disk2_DVD9\VIDEO_TS\VTS_01_2.VOB
Формат : MPEG-PS
Размер файла : 1000 Мбайт
Продолжительность : 11 м.
Режим общего битрейта : Переменный
Общий поток : 11,8 Мбит/сек

Видео
Идентификатор : 224 (0xE0)
Формат : MPEG Video
Версия формата : Version 2
Профиль формата : Main@Main
Параметр BVOP формата : Да
Параметр матрицы формата : Выборочная
Параметр GOP формата : M=3, N=15
Продолжительность : 11 м.
Вид битрейта : Переменный
Битрейт : 11,4 Мбит/сек
Максимальный битрейт : 6000 Кбит/сек
Ширина : 352 пикселя
Высота : 576 пикселей
Соотношение сторон : 4:3
Частота кадров : 25,000 кадров/сек
Стандарт вещания : PAL
Цветовое пространство : YUV
Субдискретизация насыщенности : 4:2:0
Битовая глубина : 8 бит
Тип развёртки : Чересстрочная
Порядок развёртки : Верхнее поле первое
Метод сжатия : С потерями
Бит/(Пиксели*Кадры) : 2.248
Размер потока : 964 Мбайт (96%)

Аудио
Идентификатор : 189 (0xBD)-128 (0x80)
Формат : AC-3
Формат/Информация : Audio Coding 3
Расширение режима : CM (complete main)
Параметр Endianness формата : Big
Режим смешивания : DVD-Video
Продолжительность : 11 м.
Вид битрейта : Постоянный
Битрейт : 192 Кбит/сек
Каналы : 2 канала
Расположение каналов : Front: L R
Частота : 48,0 КГц
Битовая глубина : 16 бит
Метод сжатия : С потерями
Задержка видео : -232 мс.
Размер потока : 16,2 Мбайт (2%)

Меню
Бонусы: нет
Скриншоты:
Описание: Война всегда начинается внезапно. В 1941 году началась самая страшная - Великая Отечественная. День победы СССР над фашистской Германией в Великую Отечественную Войну был и остаётся одним из самых почитаемых праздников в нашей стране.
В серию сборников "За Родину" вошли фильмы наиболее полно передающие атмосферу того героического времени. Это и самые последние современные художественные фильмы о войне, документальная хроника военных лет и фильмы военного времени, ставшие классикой. Эти сборники будут интересны и молодому поколению и, безусловно, станут прекрасным подарком нашим любимым родителям.
Жанр: драма, военный
Продолжительность: ~ 4 x 01:33:22
Скриншоты:

Время раздачи: 24/7, до 10 скачавших
[NNM-Club.me]_[NNM-Club.ru]_ZA_RODINU_2nd_Boxed_Set.torrent
 Торрент: Платиновая раздача  Зарегистрирован
 
Скачать


Примагнититься
 Зарегистрирован:   15 Янв 2019 11:11:10
 Размер:   25,4 GB  (
 Рейтинг:   4,3 (Голосов: 82)
 Поблагодарили:   213
 Проверка:   Оформление проверено модератором 15 Янв 2019 11:12:10
Как cкачать  ·  Как раздать  ·  Правильно оформить  ·  Поднять ратио!  
Pruglo
Стаж: 8 лет
Сообщений: 149
Ratio: 9,751
2.44%
russia.gif
Раздайте пожалуйста
Показать сообщения:   
Начать новую тему   Ответить на тему    Торрент-трекер NNM-Club -> Коллекции / *логии -> Отечественное кино (коллекции / *логии) Часовой пояс: GMT + 3
Страница 1 из 1