Классический форум-трекер
canvas not supported
Нас вместе: 4 082 228

Чудеса / Ji ji (1989) DVD9


 
 
RSS
Начать новую тему   Ответить на тему    Торрент-трекер NNM-Club -> Зарубежное кино -> Азиатское кино (DVD)
Автор Сообщение
Alex_Fors ®
Стаж: 9 лет 2 мес.
Сообщений: 387
Ratio: 102,587
Поблагодарили: 18412
100%
portugal.gif
Чудеса / Ji ji (1989) DVD9
Русское название: Чудеса
Оригинальное название: Ji ji
Производство: Гонконг
Год выпуска: 1989
Жанр: Боевик, Драма, Комедия

Описание фильма:
В поисках лучшей жизни и без гроша в кармане Чарли приезжает в Гонконг. Свои последние центы он отдает бедной торговке за цветок розы, который должен принести ему удачу. И «счастливый» случай не заставил себя ждать. Чарли становится невольным участником перестрелки двух мафиозных кланов и выносит из-под огня главного босса одной из гангстерских группировок.

Умирая, главарь мафии назначает Чарли своим наследником и Большим Братом своего клана. В роли «крестного отца» доброй половины криминального Гонконга Чарли приходится проявлять чудеса ловкости и изобретательности…

Режиссер: Джеки Чан
Актеры: Джеки Чан, Анита Муи, Ах Леи Гуа, Чун Хсианг Ко, Ма Ву, Билл Тун, Лин Персивал, Кенни Би, Энтони Карпио, Энтони Чан ...

Продолжительность: 02:01:39
Перевод: Одноголосый закадровый (Визгунов)
Язык субтитров: английский
Вид субтитров: Вшитые отключаемые



Дата мировой премьеры: 15 июня 1989
Дата выхода DVD релиза: 28 октября 2008, «Мьюзик-Трейд»

Видеокодек: MPEG-2
Битрейт видео: ~4816 kb/s
Размер кадра: 720x576@1024x576 (PAL 16:9) VBR Auto Letterboxed
Качество видео: DVD9
Аудио: (Dolby AC3, 6 ch) ~448 kb/s |Русский, одноголосый закадровый (Визгунов)|
Аудио: (Dolby AC3, 6 ch) ~448 kb/s |Английский, дублированный|
Аудио: (Dolby AC3, 6 ch) ~448 kb/s |Китайский, оригинальный|
Аудио: (Dolby AC3, 2 ch) ~192 kb/s |Английский (комментарии)|
СЭМПЛ
-Анимированная биография
-Фотогалерея
-Трейлеры
-Интервью с актерами
Title: Чудеса.1989.DVD9
Size: 7.31 Gb ( 7 664 750,00 KBytes ) - DVD-9
Enabled regions: 1, 2, 3, 4, 5, 6, 8

VTS_01 :
Play Length: 00:00:01
Video: PAL 16:9 (720x576) VBR, Auto Letterboxed
Audio:
Russian (Dolby AC3, 6 ch)
English (Dolby AC3, 6 ch)
Chinese (Dolby AC3, 6 ch)
Subtitles:
English

VTS_02 :
Play Length: 02:01:37+00:00:01+00:00:01+{02:01:37}+{00:00:01}
Video: PAL 16:9 (720x576) VBR, Auto Letterboxed
Audio:
Russian (Dolby AC3, 6 ch)
English (Dolby AC3, 6 ch)
Chinese (Dolby AC3, 6 ch)
English (Dolby AC3, 2 ch)
Subtitles:
English

VTS_03 :
Play Length: 00:00:01+{00:00:01}+{00:00:01}
Video: PAL 16:9 (720x576) VBR, Auto Letterboxed
Audio:
English (Dolby AC3, 2 ch)

VTS_04 :
Play Length: 00:00:01+00:37:21+00:00:01
Video: PAL 16:9 (720x576) VBR, Auto Letterboxed
Audio:
English (Dolby AC3, 2 ch)

VTS_05 :
Play Length: 00:00:01+{00:00:01}
Video: PAL 16:9 (720x576) VBR, Auto Letterboxed
Audio:
English (Dolby AC3, 2 ch)

VTS_06 :
Play Length: 00:00:01+00:01:14+00:00:01
Video: PAL 16:9 (720x576) VBR, Auto Letterboxed
Audio:
English (Dolby AC3, 2 ch)

VTS_07 :
Play Length: 00:00:01+00:04:22+00:00:01
Video: PAL 16:9 (720x576) VBR, Auto Letterboxed
Audio:
English (Dolby AC3, 2 ch)
Subtitles:
English

VTS_08 :
Play Length: 00:00:01+00:10:44+00:00:01
Video: PAL 16:9 (720x576) VBR, Auto Letterboxed
Audio:
English (Dolby AC3, 2 ch)

VTS_09 :
Play Length: 00:00:44
Video: PAL 4:3 (720x576) VBR
Audio:
Russian (Dolby AC3, 2 ch)

* Menus Information *

VIDEO_TS Menu
Video:
NTSC 4:3 (720x480) VBR
Auto Pan&Scan, Auto Letterboxed
Russian Language Unit :
Title Menu

VTS_01 Menu
Video:
PAL 16:9 (720x576) VBR
Auto Letterboxed
Audio:
Not specified (Dolby AC3, 2 ch)
Russian Language Unit :
Root Menu

VTS_02 Menu
Video:
NTSC 4:3 (720x480) VBR
Auto Pan&Scan, Auto Letterboxed
Russian Language Unit :
Root Menu

VTS_03 Menu
Video:
NTSC 4:3 (720x480) VBR
Auto Pan&Scan, Auto Letterboxed
Russian Language Unit :
Root Menu

VTS_04 Menu
Video:
NTSC 4:3 (720x480) VBR
Auto Pan&Scan, Auto Letterboxed
Russian Language Unit :
Root Menu

VTS_05 Menu
Video:
PAL 16:9 (720x576) VBR
Auto Letterboxed
Russian Language Unit :
Root Menu

VTS_06 Menu
Video:
NTSC 4:3 (720x480) VBR
Auto Pan&Scan, Auto Letterboxed
Russian Language Unit :
Root Menu

VTS_07 Menu
Video:
NTSC 4:3 (720x480) VBR
Auto Pan&Scan, Auto Letterboxed
Russian Language Unit :
Root Menu

VTS_08 Menu
Video:
NTSC 4:3 (720x480) VBR
Auto Pan&Scan, Auto Letterboxed
Russian Language Unit :
Root Menu

VTS_09 Menu
Video:
NTSC 4:3 (720x480) VBR
Auto Pan&Scan, Auto Letterboxed
Language Unit :
Chapter (PTT) Menu
Формат : MPEG-PS
Размер файла : 1024 Мбайт
Продолжительность : 22 м.
Общий поток : 6481 Кбит/сек

Видео
Идентификатор : 224 (0xE0)
Формат : MPEG Video
Версия формата : Version 2
Профиль формата : Main@Main
Параметр BVOP формата : Да
Параметр матрицы формата : Выборочная
Параметр GOP формата : M=3, N=12
Продолжительность : 22 м.
Вид битрейта : Переменный
Битрейт : 4816 Кбит/сек
Максимальный битрейт : 7200 Кбит/сек
Ширина : 720 пикселей
Высота : 576 пикселей
Соотношение сторон : 2,35:1
Частота кадров : 25,000 кадров/сек
Стандарт вещания : PAL
Цветовое пространство : YUV
Субдискретизация насыщенности : 4:2:0
Битовая глубина : 8 бит
Тип развёртки : Чересстрочная
Порядок развёртки : Верхнее поле первое
Метод сжатия : С потерями
Бит/(Пиксели*Кадры) : 0.465
Размер потока : 761 Мбайт (74%)

Аудио #1
Идентификатор : 189 (0xBD)-128 (0x80)
Формат : AC-3
Формат/Информация : Audio Coding 3
Расширение режима : CM (complete main)
Режим смешивания : DVD-Video
Продолжительность : 22 м.
Вид битрейта : Постоянный
Битрейт : 448 Кбит/сек
Каналы : 6 каналов
Расположение каналов : Front: L C R, Side: L R, LFE
Частота : 48,0 КГц
Битовая глубина : 16 бит
Метод сжатия : С потерями
Задержка видео : -304 мс.
Размер потока : 70,8 Мбайт (7%)

Аудио #2
Идентификатор : 189 (0xBD)-129 (0x81)
Формат : AC-3
Формат/Информация : Audio Coding 3
Расширение режима : CM (complete main)
Режим смешивания : DVD-Video
Продолжительность : 22 м.
Вид битрейта : Постоянный
Битрейт : 448 Кбит/сек
Каналы : 6 каналов
Расположение каналов : Front: L C R, Side: L R, LFE
Частота : 48,0 КГц
Битовая глубина : 16 бит
Метод сжатия : С потерями
Задержка видео : -304 мс.
Размер потока : 70,8 Мбайт (7%)

Аудио #3
Идентификатор : 189 (0xBD)-130 (0x82)
Формат : AC-3
Формат/Информация : Audio Coding 3
Расширение режима : CM (complete main)
Режим смешивания : DVD-Video
Продолжительность : 22 м.
Вид битрейта : Постоянный
Битрейт : 448 Кбит/сек
Каналы : 6 каналов
Расположение каналов : Front: L C R, Side: L R, LFE
Частота : 48,0 КГц
Битовая глубина : 16 бит
Метод сжатия : С потерями
Задержка видео : -304 мс.
Размер потока : 70,8 Мбайт (7%)

Аудио #4
Идентификатор : 189 (0xBD)-131 (0x83)
Формат : AC-3
Формат/Информация : Audio Coding 3
Расширение режима : CM (complete main)
Режим смешивания : DVD-Video
Продолжительность : 22 м.
Вид битрейта : Постоянный
Битрейт : 192 Кбит/сек
Каналы : 2 канала
Расположение каналов : Front: L R
Частота : 48,0 КГц
Битовая глубина : 16 бит
Метод сжатия : С потерями
Задержка видео : -208 мс.
Размер потока : 30,3 Мбайт (3%)

Текст
Идентификатор : 189 (0xBD)-32 (0x20)
Формат : RLE
Формат/Информация : Run-length encoding
Режим смешивания : DVD-Video
Продолжительность : 21 м.
Задержка видео : 3 с. 0 мс.

Меню
Скриншоты:


Время раздачи: 15:00-20:00
[NNM-Club.ru]_CHudesa.1989.DVD9.torrent
 Торрент: Золотая раздача  Зарегистрирован
 
Зарегистрируйтесь и скачайте торрент!
38,6 KB

 Зарегистрирован:   07 Май 2013 05:21:22
 Размер:   7,31 GB  (
 Рейтинг:   4,7 (Голосов: 17)
 Поблагодарили:   67
 Проверка:   Оформление проверено модератором 08 Май 2013 08:57:53
Как cкачать  ·  Как раздать  ·  Правильно оформить  ·  Поднять ратио!  
BurgerKing
Стаж: 9 лет 3 мес.
Сообщений: 961
Ratio: 4,131
100%
russia.gif
у меня этот фильм на картонной коробке из под кассеты, перевели как "мистер гонконг"! :)

Мистер Гонконг / Miracles (Джеки Чан) [1989 г., комедия, боевик, DVDRip]
dorognik74
Стаж: 10 лет 7 мес.
Сообщений: 1257
Ratio: 5,045
Поблагодарили: 104
100%
Откуда: Россия
russia.gif
BurgerKing писал(а): Перейти к сообщению
у меня этот фильм на картонной коробке из под кассеты, перевели как "мистер гонконг"! :)

Мистер Гонконг / Miracles (Джеки Чан) [1989 г., комедия, боевик, DVDRip]


Верно, такая же лежит дома :)
Показать сообщения:   
Начать новую тему   Ответить на тему    Торрент-трекер NNM-Club -> Зарубежное кино -> Азиатское кино (DVD) Часовой пояс: GMT + 3
Страница 1 из 1