Классический форум-трекер
canvas not supported
Нас вместе: 4 076 652

Semargl - Discolove (2013) [H.264/1080р] WEB-DLRip


 
 
RSS
Начать новую тему   Ответить на тему    Торрент-трекер NNM-Club -> Архив торрентов -> Архив Музыкального Видео
Автор Сообщение
Senatoff ®
Стаж: 10 лет 4 мес.
Сообщений: 122
Ratio: 35,349
Поблагодарили: 3408
100%
Откуда: United Kingdom
uk.gif
Semargl – Discolove (2013)
Исполнитель: Semargl
Название: Discolove
Год выпуска: 2013
Страна: Ukraine
Жанр: Dance, Melodic Industrial Metal
Продолжительность: 00:04:39

Описание:
Видеоклип группы Semargl "Discolove" одноимённого сингла 2013 года с новой вокалисткой - Adele Ri.

Видеокодек: MPEG-4 AVC/H.264
Битрейт видео: ~6004 Kbps
Размер кадра: 1920x1080
Качество видео: WEB-DLRip
Аудиокодек: AAC
Битрейт аудио: 192 kbps stereo
Код:
Общее
Полное имя                               : G:\Музыкальное видео\КЛИПЫ\Semargl - Discolove (Official).mp4
Формат                                   : MPEG-4
Профиль формата                          : Base Media / Version 2
Идентификатор кодека                     : mp42
Размер файла                             : 206 Мбайт
Продолжительность                        : 4 м. 39 с.
Режим общего битрейта                    : Переменный
Общий поток                              : 6199 Кбит/сек
Дата кодирования                         : UTC 2013-03-31 17:54:05
Дата пометки                             : UTC 2013-03-31 17:54:05
gsst                                     : 0
gstd                                     : 279288
gssd                                     : BADC23AC4HH1367851511069880
gshh                                     : r4---sn-n8v7lnel.c.youtube.com

Видео
Идентификатор                            : 1
Формат                                   : AVC
Формат/Информация                        : Advanced Video Codec
Профиль формата                          : High@L4.0
Параметр CABAC формата                   : Да
Параметр ReFrames формата                : 1 кадр
Параметр GOP формата                     : M=1, N=60
Идентификатор кодека                     : avc1
Идентификатор кодека/Информация          : Advanced Video Coding
Продолжительность                        : 4 м. 39 с.
Битрейт                                  : 6004 Кбит/сек
Максимальный битрейт                     : 13,0 Мбит/сек
Ширина                                   : 1920 пикселей
Высота                                   : 1080 пикселей
Соотношение сторон                       : 16:9
Режим частоты кадров                     : Постоянный
Частота кадров                           : 29,970 кадров/сек
Цветовое пространство                    : YUV
Субдискретизация насыщенности            : 4:2:0
Битовая глубина                          : 8 бит
Тип развёртки                            : Прогрессивная
Бит/(Пиксели*Кадры)                      : 0.097
Размер потока                            : 200 Мбайт (97%)
Дата пометки                             : UTC 2013-03-31 17:54:27

Аудио
Идентификатор                            : 2
Формат                                   : AAC
Формат/Информация                        : Advanced Audio Codec
Профиль формата                          : LC
Идентификатор кодека                     : 40
Продолжительность                        : 4 м. 39 с.
Вид битрейта                             : Переменный
Битрейт                                  : 192 Кбит/сек
Максимальный битрейт                     : 201 Кбит/сек
Каналы                                   : 2 канала
Расположение каналов                     : Front: L R
Частота                                  : 44,1 КГц
Метод сжатия                             : С потерями
Размер потока                            : 6,39 Мбайт (3%)
Заголовок                                : IsoMedia File Produced by Google, 5-11-2011
Дата кодирования                         : UTC 2013-03-31 17:54:21
Дата пометки                             : UTC 2013-03-31 17:54:27

Скриншоты:



Время раздачи: С 10:00 до 17:30 (мск)
[NNM-Club.ru]_Semargl - Discolove (Official).torrent
 Торрент: Платиновая раздача  Зарегистрирован
 
Скачать


Примагнититься
 Зарегистрирован:   08 Май 2013 11:36:21
 Размер:   206 MB  (
 Рейтинг:   4,5 (Голосов: 16)
 Поблагодарили:   48
 Проверка:   Оформление проверено модератором 08 Май 2013 20:04:12
Как cкачать  ·  Как раздать  ·  Правильно оформить  ·  Поднять ратио!  

_________________
Люблю блондинок, у них светлые головы.
jg71
Стаж: 6 лет 11 мес.
Сообщений: 1326
Ratio: 2,389
100%
Откуда: Из счастливого прошлого
ussr.gif
SEMARGL (СЕМАРГЛ) — satanic pop metal группа (основатель данного стиля музыки), созданная в городе Киев (Украина) в 1997 году. Первые работы группы тяготеют к стилю black metal, последующие же имеют заметное влияние death metal с рядом новаторских элементов, а последний альбом соединяет thrash, black'n'roll, industrial и другие жанры в одном. Тексты затрагивают темы сатанизма, антихристианства, философии, войны.

_________________
Ваше мнение очень ценно. Настолько ценно, что я настоятельно рекомендую сберечь его при себе и ни с кем им не делится!
mikioahara
Стаж: 8 лет
Сообщений: 492
Ratio: 4,972
48.4%
russia.gif
Я влюбился в вокалистку , а на упырей :показывает язык:
zeralex
Стаж: 10 лет 4 мес.
Сообщений: 255
Ratio: 1,461
Поблагодарили: 53
100%
Т.е. теперь у нас сатанизм открыто пропагандируется... Проститутка в обрамлении символики церкви сатаны... :огорчение: . Молодёжь, видимо, совсем отупела, если хавает эту [ерунду]
 !  Примечание от Robert Ingil:
Запрещены.
2.3. Флейм, флуд и подстрекательства к ним
5.3. Если Вы не намерены подключаться к раздаче - не комментируйте ее.
Senatoff ®
Стаж: 10 лет 4 мес.
Сообщений: 122
Ratio: 35,349
Поблагодарили: 3408
100%
Откуда: United Kingdom
uk.gif

_________________
Люблю блондинок, у них светлые головы.
Топик был перенесен из форума Музыкальные клипы в форум Архив Музыкального Видео

Причина переноса: Отсутствие сидов более трех месяцев.

Исправил релиз - напиши ЛС ALLic, дав ссылку на релиз.
Если нет ответа 24 часа - нажми на кнопку "Обратить внимание модераторов".
SSSBerg
Стаж: 7 лет 8 мес.
Сообщений: 50
Ratio: 467,753
100%
Раздавать буду примерно с 18 до 22 часов МСК ежедневно. Зря "попрашайку" не дёргайте, плиз.
Показать сообщения:   
Начать новую тему   Ответить на тему    Торрент-трекер NNM-Club -> Архив торрентов -> Архив Музыкального Видео Часовой пояс: GMT + 3
Страница 1 из 1