Классический форум-трекер
canvas not supported
Нас вместе: 4 093 517

Jimi Hendrix - 6 альбомов (1967-2010) Blu-spec CD2 Collection /2013, Sony Music Japan/ [FLAC|Image+.cue]<Psychedelic Rock/ Blues Rock>


 
 
RSS
Начать новую тему   Ответить на тему    Торрент-трекер NNM-Club -> Rock, Alternative, Punk, Metal -> Rock (Lossless)
Автор Сообщение
Bigbeer ®
RG Music
Сталкер
 
Стаж: 10 лет 4 мес.
Сообщений: 3264
Ratio: 264,898
Поблагодарили: 58402
100%
pirates.png
Jimi Hendrix - 6 альбомов (1967-2010) Blu-spec CD2 Collection

Год: 2013
Жанр: Psychedelic Rock/ Blues Rock | Издание: Sony Music | Каталог№: SICP-30001~6 | Продолжительность: 05:32:33 | Источник: ALLexxess | Сканы: Есть Кодек: FLAC | Тип рипа: Image+.cue | Метод сжатия: Lossless

Image

Продолжительность: 00:40:10
Трек лист:

01. Foxy Lady (3:19)
02. Manic Depression (3:42)
03. Red House (3:44)
04. Can You See Me (2:33)
05. Love Or Confusion (3:13)
06. I Don't Live Today (3:55)
07. May This Be Love (3:11)
08. Fire (2:45)
09. 3rd Stone From The Sun (6:44)
10. Remember (2:48)
11. Are You Experienced? (4:15)
Код:

REM GENRE "Hard Rock"
REM DATE 1967
REM DISCID 8D096A0B
REM COMMENT "ExactAudioCopy v1.0b3"
PERFORMER "The Jimi Hendrix Experience"
TITLE "Are You Experienced?"
FILE "The Jimi Hendrix Experience - Are You Experienced.flac" WAVE
  TRACK 01 AUDIO
    TITLE "Foxy Lady"
    PERFORMER "The Jimi Hendrix Experience"
    INDEX 01 00:00:00
  TRACK 02 AUDIO
    TITLE "Manic Depression"
    PERFORMER "The Jimi Hendrix Experience"
    INDEX 01 03:19:07
  TRACK 03 AUDIO
    TITLE "Red House"
    PERFORMER "The Jimi Hendrix Experience"
    INDEX 01 07:01:24
  TRACK 04 AUDIO
    TITLE "Can You See Me"
    PERFORMER "The Jimi Hendrix Experience"
    INDEX 01 10:45:58
  TRACK 05 AUDIO
    TITLE "Love Or Confusion"
    PERFORMER "The Jimi Hendrix Experience"
    INDEX 01 13:18:46
  TRACK 06 AUDIO
    TITLE "I Don't Live Today"
    PERFORMER "The Jimi Hendrix Experience"
    INDEX 01 16:31:65
  TRACK 07 AUDIO
    TITLE "May This Be Love"
    PERFORMER "The Jimi Hendrix Experience"
    INDEX 01 20:26:69
  TRACK 08 AUDIO
    TITLE "Fire"
    PERFORMER "The Jimi Hendrix Experience"
    INDEX 01 23:38:06
  TRACK 09 AUDIO
    TITLE "3rd Stone From The Sun"
    PERFORMER "The Jimi Hendrix Experience"
    INDEX 01 26:23:13
  TRACK 10 AUDIO
    TITLE "Remember"
    PERFORMER "The Jimi Hendrix Experience"
    INDEX 01 33:07:25
  TRACK 11 AUDIO
    TITLE "Are You Experienced?"
    PERFORMER "The Jimi Hendrix Experience"
    INDEX 01 35:55:45

Код:

Exact Audio Copy V1.0 beta 3 from 29. August 2011

EAC extraction logfile from 23. April 2013, 20:52

The Jimi Hendrix Experience / Are You Experienced?

Used drive  : PLEXTOR BD-R  PX-B950SA   Adapter: 6  ID: 0

Read mode               : Secure
Utilize accurate stream : Yes
Defeat audio cache      : Yes
Make use of C2 pointers : No

Read offset correction                      : 6
Overread into Lead-In and Lead-Out          : No
Fill up missing offset samples with silence : Yes
Delete leading and trailing silent blocks   : No
Null samples used in CRC calculations       : Yes
Used interface                              : Native Win32 interface for Win NT & 2000

Used output format : Internal WAV Routines
Sample format      : 44.100 Hz; 16 Bit; Stereo

TOC of the extracted CD

     Track |   Start  |  Length  | Start sector | End sector
    ---------------------------------------------------------
        1  |  0:00.00 |  3:19.07 |         0    |    14931
        2  |  3:19.07 |  3:42.17 |     14932    |    31598
        3  |  7:01.24 |  3:44.34 |     31599    |    48432
        4  | 10:45.58 |  2:32.63 |     48433    |    59895
        5  | 13:18.46 |  3:13.19 |     59896    |    74389
        6  | 16:31.65 |  3:55.04 |     74390    |    92018
        7  | 20:26.69 |  3:11.12 |     92019    |   106355
        8  | 23:38.06 |  2:45.07 |    106356    |   118737
        9  | 26:23.13 |  6:44.12 |    118738    |   149049
       10  | 33:07.25 |  2:48.20 |    149050    |   161669
       11  | 35:55.45 |  4:14.42 |    161670    |   180761

Range status and errors

Selected range

     Filename C:\Users\Meijin\Desktop\Lossless Galaxy ALLexxess\Jimi Hendrix\1967 Are You Experienced (Sony Music Japan Mini LP BSCD2 2013)\The Jimi Hendrix Experience - Are You Experienced.wav

     Peak level 100.0 %
     Extraction speed 6.8 X
     Range quality 100.0 %
     Test CRC D2C826A2
     Copy CRC D2C826A2
     Copy OK

No errors occurred

AccurateRip summary

Track  1  not present in database
Track  2  not present in database
Track  3  not present in database
Track  4  not present in database
Track  5  not present in database
Track  6  not present in database
Track  7  not present in database
Track  8  not present in database
Track  9  not present in database
Track 10  not present in database
Track 11  not present in database

None of the tracks are present in the AccurateRip database

End of status report

==== Log checksum 770C92E85D3F21C19196CACC98A66B0155F3F9B06CE206EE0B28B06F0E4C9812 ====

Код:

-----------------------

DON'T MODIFY THIS FILE

-----------------------

PERFORMER: auCDtect Task Manager, ver. 1.5.1RC3 build 1.5.1.4
Copyright (c) 2008-2010 y-soft. All rights reserved
http://y-soft.org

ANALYZER: auCDtect: CD records authenticity detector, version 0.8.2
Copyright (c) 2004 Oleg Berngardt. All rights reserved.
Copyright (c) 2004 Alexander Djourik. All rights reserved.

FILE: Jimi Hendrix - Are You Experienced.flac
  Size: 264018632 Hash: D2AFC410F629FE599E8F936913BC0AB4 Accuracy: -m8
  Conclusion: CDDA 100%
  Signature: F4FFF47330CDF6C73573220A0ECB922EB19A12ED

Image

Продолжительность: 00:39:29
Трек лист:
01. Exp (1:55)
02. Up From The Skies (2:58)
03. Spanish Castle Magic (3:06)
04. Wait Until Tomorrow (3:03)
05. Ain't No Telling (1:50)
06. Little Wing (2:27)
07. If 6 Was 9 (5:35)
08. You Got Me Floatin' (2:48)
09. Castles Made Of Sand (2:49)
10. She's So Fine (2:40)
11. One Rainy Wish (3:43)
12. Little Miss Lover (2:24)
13. Bold As Love (4:11)
REM GENRE "Hard Rock"
REM DATE 1967
REM DISCID A409410D
REM COMMENT "ExactAudioCopy v1.0b3"
PERFORMER "The Jimi Hendrix Experience"
TITLE "Axis: Bold As Love"
FILE "The Jimi Hendrix Experience - Axis - Bold As Love.flac" WAVE
TRACK 01 AUDIO
TITLE "Exp"
PERFORMER "The Jimi Hendrix Experience"
INDEX 01 00:00:00
TRACK 02 AUDIO
TITLE "Up From The Skies"
PERFORMER "The Jimi Hendrix Experience"
INDEX 01 01:55:15
TRACK 03 AUDIO
TITLE "Spanish Castle Magic"
PERFORMER "The Jimi Hendrix Experience"
INDEX 01 04:53:11
TRACK 04 AUDIO
TITLE "Wait Until Tomorrow"
PERFORMER "The Jimi Hendrix Experience"
INDEX 00 07:56:36
INDEX 01 07:58:71
TRACK 05 AUDIO
TITLE "Ain't No Telling"
PERFORMER "The Jimi Hendrix Experience"
INDEX 01 11:01:37
TRACK 06 AUDIO
TITLE "Little Wing"
PERFORMER "The Jimi Hendrix Experience"
INDEX 00 12:49:65
INDEX 01 12:51:47
TRACK 07 AUDIO
TITLE "If 6 Was 9"
PERFORMER "The Jimi Hendrix Experience"
INDEX 00 15:17:35
INDEX 01 15:18:72
TRACK 08 AUDIO
TITLE "You Got Me Floatin'"
PERFORMER "The Jimi Hendrix Experience"
INDEX 01 20:53:43
TRACK 09 AUDIO
TITLE "Castles Made Of Sand"
PERFORMER "The Jimi Hendrix Experience"
INDEX 01 23:41:55
TRACK 10 AUDIO
TITLE "She's So Fine"
PERFORMER "The Jimi Hendrix Experience"
INDEX 01 26:30:55
TRACK 11 AUDIO
TITLE "One Rainy Wish"
PERFORMER "The Jimi Hendrix Experience"
INDEX 00 29:09:22
INDEX 01 29:10:65
TRACK 12 AUDIO
TITLE "Little Miss Lover"
PERFORMER "The Jimi Hendrix Experience"
INDEX 00 32:52:52
INDEX 01 32:53:61
TRACK 13 AUDIO
TITLE "Bold As Love"
PERFORMER "The Jimi Hendrix Experience"
INDEX 00 35:15:20
INDEX 01 35:18:04
Код:
Exact Audio Copy V1.0 beta 3 from 29. August 2011

EAC extraction logfile from 23. April 2013, 20:16

The Jimi Hendrix Experience / Axis: Bold As Love

Used drive  : PLEXTOR BD-R  PX-B950SA   Adapter: 6  ID: 0

Read mode               : Secure
Utilize accurate stream : Yes
Defeat audio cache      : Yes
Make use of C2 pointers : No

Read offset correction                      : 6
Overread into Lead-In and Lead-Out          : No
Fill up missing offset samples with silence : Yes
Delete leading and trailing silent blocks   : No
Null samples used in CRC calculations       : Yes
Used interface                              : Native Win32 interface for Win NT & 2000

Used output format : Internal WAV Routines
Sample format      : 44.100 Hz; 16 Bit; Stereo

TOC of the extracted CD

     Track |   Start  |  Length  | Start sector | End sector
    ---------------------------------------------------------
        1  |  0:00.00 |  1:55.15 |         0    |     8639
        2  |  1:55.15 |  2:57.71 |      8640    |    21985
        3  |  4:53.11 |  3:05.60 |     21986    |    35920
        4  |  7:58.71 |  3:02.41 |     35921    |    49611
        5  | 11:01.37 |  1:50.10 |     49612    |    57871
        6  | 12:51.47 |  2:27.25 |     57872    |    68921
        7  | 15:18.72 |  5:34.46 |     68922    |    94017
        8  | 20:53.43 |  2:48.12 |     94018    |   106629
        9  | 23:41.55 |  2:49.00 |    106630    |   119304
       10  | 26:30.55 |  2:40.10 |    119305    |   131314
       11  | 29:10.65 |  3:42.71 |    131315    |   148035
       12  | 32:53.61 |  2:24.18 |    148036    |   158853
       13  | 35:18.04 |  4:11.01 |    158854    |   177679

Range status and errors

Selected range

     Filename C:\Users\Meijin\Desktop\Lossless Galaxy ALLexxess\Jimi Hendrix\1967 Axis - Bold As Love (Sony Music Japan Mini LP BSCD2 2013)\The Jimi Hendrix Experience - Axis - Bold As Love.wav

     Peak level 99.9 %
     Extraction speed 3.0 X
     Range quality 100.0 %
     Test CRC 2369B281
     Copy CRC 2369B281
     Copy OK

No errors occurred

AccurateRip summary

Track  1  accurately ripped (confidence 2)  [63C45622]  (AR v1)
Track  2  accurately ripped (confidence 2)  [F6C9CF2F]  (AR v1)
Track  3  accurately ripped (confidence 2)  [4E27117F]  (AR v1)
Track  4  accurately ripped (confidence 2)  [CC9BF8F8]  (AR v1)
Track  5  accurately ripped (confidence 2)  [F5F88814]  (AR v1)
Track  6  accurately ripped (confidence 2)  [12C3F019]  (AR v1)
Track  7  accurately ripped (confidence 2)  [D3EBAE9A]  (AR v1)
Track  8  accurately ripped (confidence 2)  [20D7DB9D]  (AR v1)
Track  9  accurately ripped (confidence 2)  [82C77D42]  (AR v1)
Track 10  accurately ripped (confidence 2)  [0FC21B0B]  (AR v1)
Track 11  accurately ripped (confidence 2)  [064222B5]  (AR v1)
Track 12  accurately ripped (confidence 2)  [98CDC070]  (AR v1)
Track 13  accurately ripped (confidence 2)  [359EF970]  (AR v1)

All tracks accurately ripped

End of status report

==== Log checksum 0AE3B8B10399BB5F80080B00A8121099A82D6457BD9D089FC2BED5D5D747BE7F ====

Код:
-----------------------

DON'T MODIFY THIS FILE

-----------------------

PERFORMER: auCDtect Task Manager, ver. 1.5.1RC6 build 1.5.1.7
Copyright (c) 2008-2010 y-soft. All rights reserved
http://y-soft.org

ANALYZER: auCDtect: CD records authenticity detector, version 0.8.2
Copyright (c) 2004 Oleg Berngardt. All rights reserved.
Copyright (c) 2004 Alexander Djourik. All rights reserved.

FILE: The Jimi Hendrix Experience - Axis - Bold As Love.flac
  Size: 271146705 Hash: EE1BED263430BF59CF7E3D60983EE2D2 Accuracy: -m0
  Conclusion: CDDA 100%
  Signature: 5C236511C87FE295B28DB1B02B6F2B20CAFB15CC

Image

Продолжительность: 01:15:28
Трек лист:
01. ...And The Gods Made Love (1:23)
02. Have You Ever Been (To Electric Ladyland) (2:10)
03. Crosstown Traffic (2:27)
04. Voodoo Chile (15:00)
05. Little Miss Strange (2:52)
06. Long Hot Summer Night (3:28)
07. Come On (Let The Good Times Roll) (4:09)
08. Gypsy Eyes (3:44)
09. Burning Of The Midnight Lamp (3:40)
10. Rainy Day, Dream Away (3:42)
11. 1983... (A Merman I Should Turn To Be) (13:40)
12. Moon, Turn The Tides...Gently Gently Away (1:02)
13. Still Raining, Still Dreaming (4:26)
14. House Burning Down (4:33)
15. All Along The Watchtower (4:01)
16. Voodoo Child (Slight Return) (5:13)
REM GENRE "Hard Rock"
REM DATE 1968
REM DISCID CA11AF10
REM COMMENT "ExactAudioCopy v1.0b3"
PERFORMER "The Jimi Hendrix Experience"
TITLE "Electric Ladyland"
FILE "The Jimi Hendrix Experience - Electric Ladyland.flac" WAVE
TRACK 01 AUDIO
TITLE "...And The Gods Made Love"
PERFORMER "The Jimi Hendrix Experience"
INDEX 01 00:00:00
TRACK 02 AUDIO
TITLE "Have You Ever Been (To Electric Ladyland)"
PERFORMER "The Jimi Hendrix Experience"
INDEX 01 01:22:47
TRACK 03 AUDIO
TITLE "Crosstown Traffic"
PERFORMER "The Jimi Hendrix Experience"
INDEX 01 03:32:50
TRACK 04 AUDIO
TITLE "Voodoo Chile"
PERFORMER "The Jimi Hendrix Experience"
INDEX 01 05:59:18
TRACK 05 AUDIO
TITLE "Little Miss Strange"
PERFORMER "The Jimi Hendrix Experience"
INDEX 01 20:59:13
TRACK 06 AUDIO
TITLE "Long Hot Summer Night"
PERFORMER "The Jimi Hendrix Experience"
INDEX 01 23:51:28
TRACK 07 AUDIO
TITLE "Come On (Let The Good Times Roll)"
PERFORMER "The Jimi Hendrix Experience"
INDEX 01 27:19:10
TRACK 08 AUDIO
TITLE "Gypsy Eyes"
PERFORMER "The Jimi Hendrix Experience"
INDEX 01 31:28:38
TRACK 09 AUDIO
TITLE "Burning Of The Midnight Lamp"
PERFORMER "The Jimi Hendrix Experience"
INDEX 01 35:12:14
TRACK 10 AUDIO
TITLE "Rainy Day, Dream Away"
PERFORMER "The Jimi Hendrix Experience"
INDEX 01 38:51:60
TRACK 11 AUDIO
TITLE "1983... (A Merman I Should Turn To Be)"
PERFORMER "The Jimi Hendrix Experience"
INDEX 01 42:33:65
TRACK 12 AUDIO
TITLE "Moon, Turn The Tides...Gently Gently Away"
PERFORMER "The Jimi Hendrix Experience"
INDEX 01 56:13:37
TRACK 13 AUDIO
TITLE "Still Raining, Still Dreaming"
PERFORMER "The Jimi Hendrix Experience"
INDEX 01 57:15:17
TRACK 14 AUDIO
TITLE "House Burning Down"
PERFORMER "The Jimi Hendrix Experience"
INDEX 01 61:40:64
TRACK 15 AUDIO
TITLE "All Along The Watchtower"
PERFORMER "The Jimi Hendrix Experience"
INDEX 01 66:13:52
TRACK 16 AUDIO
TITLE "Voodoo Child (Slight Return)"
PERFORMER "The Jimi Hendrix Experience"
INDEX 01 70:14:37
Код:
Exact Audio Copy V1.0 beta 3 from 29. August 2011

EAC extraction logfile from 21. April 2013, 21:54

Jimi Hendrix / Electric Ladyland

Used drive  : PLEXTOR BD-R  PX-B950SA   Adapter: 6  ID: 0

Read mode               : Secure
Utilize accurate stream : Yes
Defeat audio cache      : Yes
Make use of C2 pointers : No

Read offset correction                      : 6
Overread into Lead-In and Lead-Out          : No
Fill up missing offset samples with silence : Yes
Delete leading and trailing silent blocks   : No
Null samples used in CRC calculations       : Yes
Used interface                              : Native Win32 interface for Win NT & 2000

Used output format : Internal WAV Routines
Sample format      : 44.100 Hz; 16 Bit; Stereo

TOC of the extracted CD

     Track |   Start  |  Length  | Start sector | End sector
    ---------------------------------------------------------
        1  |  0:00.00 |  1:22.47 |         0    |     6196
        2  |  1:22.47 |  2:10.03 |      6197    |    15949
        3  |  3:32.50 |  2:26.43 |     15950    |    26942
        4  |  5:59.18 | 14:59.70 |     26943    |    94437
        5  | 20:59.13 |  2:52.15 |     94438    |   107352
        6  | 23:51.28 |  3:27.57 |    107353    |   122934
        7  | 27:19.10 |  4:09.28 |    122935    |   141637
        8  | 31:28.38 |  3:43.51 |    141638    |   158413
        9  | 35:12.14 |  3:39.46 |    158414    |   174884
       10  | 38:51.60 |  3:42.05 |    174885    |   191539
       11  | 42:33.65 | 13:39.47 |    191540    |   253011
       12  | 56:13.37 |  1:01.55 |    253012    |   257641
       13  | 57:15.17 |  4:25.47 |    257642    |   277563
       14  | 61:40.64 |  4:32.63 |    277564    |   298026
       15  | 66:13.52 |  4:00.60 |    298027    |   316086
       16  | 70:14.37 |  5:13.28 |    316087    |   339589

Range status and errors

Selected range

     Filename C:\Users\Meijin\Desktop\Lossless Galaxy ALLexxess\Jimi Hendrix\1968 Electric Ladyland (Sony Music Japan Mini LP BSCD2 2013)\Jimi Hendrix - Electric Ladyland.wav

     Peak level 99.3 %
     Extraction speed 8.7 X
     Range quality 100.0 %
     Test CRC 709A17C6
     Copy CRC 709A17C6
     Copy OK

No errors occurred

AccurateRip summary

Track  1  not present in database
Track  2  not present in database
Track  3  not present in database
Track  4  not present in database
Track  5  not present in database
Track  6  not present in database
Track  7  not present in database
Track  8  not present in database
Track  9  not present in database
Track 10  not present in database
Track 11  not present in database
Track 12  not present in database
Track 13  not present in database
Track 14  not present in database
Track 15  accurately ripped (confidence 2)  [B7A7A358]  (AR v1)
Track 16  accurately ripped (confidence 2)  [C9F270FF]  (AR v1)

 2 track(s) accurately ripped
14 track(s) not present in the AccurateRip database

Some tracks could not be verified as accurate

End of status report

==== Log checksum 733DA20B7AC8E7B771D659F138B98E2358404B5510DF4DF08F20F389D3A9F57C ====

Код:
-----------------------

DON'T MODIFY THIS FILE

-----------------------

PERFORMER: auCDtect Task Manager, ver. 1.5.1RC6 build 1.5.1.7
Copyright (c) 2008-2010 y-soft. All rights reserved
http://y-soft.org

ANALYZER: auCDtect: CD records authenticity detector, version 0.8.2
Copyright (c) 2004 Oleg Berngardt. All rights reserved.
Copyright (c) 2004 Alexander Djourik. All rights reserved.

FILE: The Jimi Hendrix Experience - Electric Ladyland.flac
  Size: 525000552 Hash: 453FF9B883EFC36B98ED0CFCBA0616D9 Accuracy: -m0
  Conclusion: CDDA 100%
  Signature: C7C4A3A769C94B25E1549EAB32386C42AC4E1836

Image

Продолжительность: 00:45:48
Трек лист:
01. Who Knows (9:39)
02. Machine Gun (12:41)
03. Changes (5:14)
04. Power To Love (6:58)
05. Message Of Love (5:26)
06. We Gotta Live Together (5:50)
REM GENRE "Hard Rock"
REM DATE 1970
REM DISCID 4D0ABB06
REM COMMENT "ExactAudioCopy v1.0b3"
PERFORMER "Jimi Hendrix"
TITLE "Band Of Gypsys"
FILE "Jimi Hendrix - Band Of Gypsys.flac" WAVE
TRACK 01 AUDIO
TITLE "Who Knows"
PERFORMER "Jimi Hendrix"
INDEX 01 00:00:00
TRACK 02 AUDIO
TITLE "Machine Gun"
PERFORMER "Jimi Hendrix"
INDEX 00 09:36:28
INDEX 01 09:38:57
TRACK 03 AUDIO
TITLE "Changes"
PERFORMER "Jimi Hendrix"
INDEX 00 22:18:15
INDEX 01 22:19:53
TRACK 04 AUDIO
TITLE "Power To Love"
PERFORMER "Jimi Hendrix"
INDEX 00 27:31:57
INDEX 01 27:33:63
TRACK 05 AUDIO
TITLE "Message Of Love"
PERFORMER "Jimi Hendrix"
INDEX 00 34:29:56
INDEX 01 34:32:09
TRACK 06 AUDIO
TITLE "We Gotta Live Together"
PERFORMER "Jimi Hendrix"
INDEX 00 39:56:00
INDEX 01 39:57:69
Код:
Exact Audio Copy V1.0 beta 3 from 29. August 2011

EAC extraction logfile from 21. April 2013, 21:16

Jimi Hendrix / Band Of Gypsys

Used drive  : PLEXTOR BD-R  PX-B950SA   Adapter: 6  ID: 0

Read mode               : Secure
Utilize accurate stream : Yes
Defeat audio cache      : Yes
Make use of C2 pointers : No

Read offset correction                      : 6
Overread into Lead-In and Lead-Out          : No
Fill up missing offset samples with silence : Yes
Delete leading and trailing silent blocks   : No
Null samples used in CRC calculations       : Yes
Used interface                              : Native Win32 interface for Win NT & 2000

Used output format : Internal WAV Routines
Sample format      : 44.100 Hz; 16 Bit; Stereo

TOC of the extracted CD

     Track |   Start  |  Length  | Start sector | End sector
    ---------------------------------------------------------
        1  |  0:00.00 |  9:38.57 |         0    |    43406
        2  |  9:38.57 | 12:40.71 |     43407    |   100477
        3  | 22:19.53 |  5:14.10 |    100478    |   124037
        4  | 27:33.63 |  6:58.21 |    124038    |   155408
        5  | 34:32.09 |  5:25.60 |    155409    |   179843
        6  | 39:57.69 |  5:50.02 |    179844    |   206095

Range status and errors

Selected range

     Filename C:\Users\Meijin\Desktop\Lossless Galaxy ALLexxess\Jimi Hendrix\1970 Band Of Gypsys (Sony Music Japan Mini LP BSCD2 2013)\Jimi Hendrix - Band Of Gypsys.wav

     Peak level 100.0 %
     Extraction speed 6.9 X
     Range quality 99.9 %
     Test CRC 6E8E7355
     Copy CRC 6E8E7355
     Copy OK

No errors occurred

AccurateRip summary

Track  1  accurately ripped (confidence 4)  [9DE336BF]  (AR v1)
Track  2  accurately ripped (confidence 4)  [08D852E1]  (AR v1)
Track  3  accurately ripped (confidence 4)  [782BBAEE]  (AR v1)
Track  4  accurately ripped (confidence 4)  [3972DFBD]  (AR v1)
Track  5  accurately ripped (confidence 4)  [BACE08C9]  (AR v1)
Track  6  accurately ripped (confidence 4)  [072BB169]  (AR v1)

All tracks accurately ripped

End of status report

==== Log checksum A70ED96F86FBC9B91E96AF942362BDA8F59D884677DCE5811E9F6920825C39DD ====

Код:
-----------------------

DON'T MODIFY THIS FILE

-----------------------

PERFORMER: auCDtect Task Manager, ver. 1.5.1RC6 build 1.5.1.7
Copyright (c) 2008-2010 y-soft. All rights reserved
http://y-soft.org

ANALYZER: auCDtect: CD records authenticity detector, version 0.8.2
Copyright (c) 2004 Oleg Berngardt. All rights reserved.
Copyright (c) 2004 Alexander Djourik. All rights reserved.

FILE: Jimi Hendrix - Band Of Gypsys.flac
  Size: 320962708 Hash: B9ABA6BE903BAC3B6D66540A1122D241 Accuracy: -m0
  Conclusion: CDDA 100%
  Signature: FDCEB223CD039E3B224D907916280B6B3FBCEF9C

Image

Продолжительность: 01:09:36
Трек лист:
01. Freedom (3:27)
02. Izabella (2:50)
03. Night Bird Flying (3:51)
04. Angel (4:22)
05. Room Full Of Mirrors (3:21)
06. Dolly Dagger (4:44)
07. Ezy Ryder (4:10)
08. Drifting (3:49)
09. Beginnings (4:13)
10. Stepping Stone (4:13)
11. My Friend (4:36)
12. Straight Ahead (4:43)
13. Hey Baby (New Rising Sun) (6:04)
14. Earth Blues (4:21)
15. Astro Man (3:35)
16. In From The Storm (3:41)
17. Belly Button Window (3:36)
Код:

REM GENRE "Hard Rock"
REM DATE 1997
REM DISCID EA104F11
REM COMMENT "ExactAudioCopy v1.0b3"
PERFORMER " Jimi Hendrix"
TITLE "First Rays Of The New Rising Sun"
FILE "Jimi Hendrix - First Rays Of The New Rising Sun.flac" WAVE
  TRACK 01 AUDIO
    TITLE "Freedom"
    PERFORMER " Jimi Hendrix"
    INDEX 01 00:00:00
  TRACK 02 AUDIO
    TITLE "Izabella"
    PERFORMER " Jimi Hendrix"
    INDEX 01 03:26:42
  TRACK 03 AUDIO
    TITLE "Night Bird Flying"
    PERFORMER " Jimi Hendrix"
    INDEX 01 06:16:49
  TRACK 04 AUDIO
    TITLE "Angel"
    PERFORMER " Jimi Hendrix"
    INDEX 01 10:07:39
  TRACK 05 AUDIO
    TITLE "Room Full Of Mirrors"
    PERFORMER " Jimi Hendrix"
    INDEX 01 14:29:35
  TRACK 06 AUDIO
    TITLE "Dolly Dagger"
    PERFORMER " Jimi Hendrix"
    INDEX 01 17:50:42
  TRACK 07 AUDIO
    TITLE "Ezy Ryder"
    PERFORMER " Jimi Hendrix"
    INDEX 01 22:34:62
  TRACK 08 AUDIO
    TITLE "Drifting"
    PERFORMER " Jimi Hendrix"
    INDEX 01 26:44:49
  TRACK 09 AUDIO
    TITLE "Beginnings"
    PERFORMER " Jimi Hendrix"
    INDEX 01 30:33:42
  TRACK 10 AUDIO
    TITLE "Stepping Stone"
    PERFORMER " Jimi Hendrix"
    INDEX 01 34:46:35
  TRACK 11 AUDIO
    TITLE "My Friend"
    PERFORMER " Jimi Hendrix"
    INDEX 01 38:59:12
  TRACK 12 AUDIO
    TITLE "Straight Ahead"
    PERFORMER " Jimi Hendrix"
    INDEX 01 43:35:26
  TRACK 13 AUDIO
    TITLE "Hey Baby (New Rising Sun)"
    PERFORMER " Jimi Hendrix"
    INDEX 01 48:18:20
  TRACK 14 AUDIO
    TITLE "Earth Blues"
    PERFORMER " Jimi Hendrix"
    INDEX 01 54:22:38
  TRACK 15 AUDIO
    TITLE "Astro Man"
    PERFORMER " Jimi Hendrix"
    INDEX 01 58:43:48
  TRACK 16 AUDIO
    TITLE "In From The Storm"
    PERFORMER " Jimi Hendrix"
    INDEX 01 62:18:41
  TRACK 17 AUDIO
    TITLE "Belly Button Window"
    PERFORMER " Jimi Hendrix"
    INDEX 01 65:59:48
Код:
Exact Audio Copy V1.0 beta 3 from 29. August 2011

EAC extraction logfile from 21. April 2013, 18:19

 Jimi Hendrix / First Rays Of The New Rising Sun

Used drive  : PLEXTOR BD-R  PX-B950SA   Adapter: 6  ID: 0

Read mode               : Secure
Utilize accurate stream : Yes
Defeat audio cache      : Yes
Make use of C2 pointers : No

Read offset correction                      : 6
Overread into Lead-In and Lead-Out          : No
Fill up missing offset samples with silence : Yes
Delete leading and trailing silent blocks   : No
Null samples used in CRC calculations       : Yes
Used interface                              : Native Win32 interface for Win NT & 2000

Used output format : Internal WAV Routines
Sample format      : 44.100 Hz; 16 Bit; Stereo

TOC of the extracted CD

     Track |   Start  |  Length  | Start sector | End sector
    ---------------------------------------------------------
        1  |  0:00.00 |  3:26.42 |         0    |    15491
        2  |  3:26.42 |  2:50.07 |     15492    |    28248
        3  |  6:16.49 |  3:50.65 |     28249    |    45563
        4  | 10:07.39 |  4:21.71 |     45564    |    65209
        5  | 14:29.35 |  3:21.07 |     65210    |    80291
        6  | 17:50.42 |  4:44.20 |     80292    |   101611
        7  | 22:34.62 |  4:09.62 |    101612    |   120348
        8  | 26:44.49 |  3:48.68 |    120349    |   137516
        9  | 30:33.42 |  4:12.68 |    137517    |   156484
       10  | 34:46.35 |  4:12.52 |    156485    |   175436
       11  | 38:59.12 |  4:36.14 |    175437    |   196150
       12  | 43:35.26 |  4:42.69 |    196151    |   217369
       13  | 48:18.20 |  6:04.18 |    217370    |   244687
       14  | 54:22.38 |  4:21.10 |    244688    |   264272
       15  | 58:43.48 |  3:34.68 |    264273    |   280390
       16  | 62:18.41 |  3:41.07 |    280391    |   296972
       17  | 65:59.48 |  3:36.19 |    296973    |   313191

Range status and errors

Selected range

     Filename C:\Users\Meijin\Desktop\Lossless Galaxy ALLexxess\Jimi Hendrix\1997 First Rays Of The New Rising Sun (Sony Music Japan Mini LP BSCD2 2013)\Jimi Hendrix - First Rays Of The New Rising Sun.wav

     Peak level 99.3 %
     Extraction speed 8.5 X
     Range quality 99.9 %
     Test CRC FE0C52DE
     Copy CRC FE0C52DE
     Copy OK

No errors occurred

AccurateRip summary

Track  1  accurately ripped (confidence 3)  [9E6CB2D9]  (AR v1)
Track  2  accurately ripped (confidence 3)  [BC5EFB2F]  (AR v1)
Track  3  accurately ripped (confidence 3)  [9077ECBA]  (AR v1)
Track  4  accurately ripped (confidence 3)  [12DA52DB]  (AR v1)
Track  5  accurately ripped (confidence 3)  [8F9B399E]  (AR v1)
Track  6  accurately ripped (confidence 3)  [8FCEA03D]  (AR v1)
Track  7  accurately ripped (confidence 3)  [FA21AE2D]  (AR v1)
Track  8  accurately ripped (confidence 3)  [888099E7]  (AR v1)
Track  9  accurately ripped (confidence 3)  [5EE7734E]  (AR v1)
Track 10  accurately ripped (confidence 3)  [B79BCA22]  (AR v1)
Track 11  accurately ripped (confidence 3)  [8E3EC87D]  (AR v1)
Track 12  accurately ripped (confidence 3)  [B0F04E04]  (AR v1)
Track 13  accurately ripped (confidence 3)  [E514DAA9]  (AR v1)
Track 14  accurately ripped (confidence 3)  [4F72AE63]  (AR v1)
Track 15  accurately ripped (confidence 3)  [6EC2893A]  (AR v1)
Track 16  accurately ripped (confidence 3)  [81F44FFD]  (AR v1)
Track 17  accurately ripped (confidence 3)  [6FAF58F1]  (AR v1)

All tracks accurately ripped

End of status report

==== Log checksum 2CD4E6D4B1788A77EA84ECB4D4565BE898035302045BF30CE9542932E8EA715C ====

Код:
-----------------------

DON'T MODIFY THIS FILE

-----------------------

PERFORMER: auCDtect Task Manager, ver. 1.5.1RC6 build 1.5.1.7
Copyright (c) 2008-2010 y-soft. All rights reserved
http://y-soft.org

ANALYZER: auCDtect: CD records authenticity detector, version 0.8.2
Copyright (c) 2004 Oleg Berngardt. All rights reserved.
Copyright (c) 2004 Alexander Djourik. All rights reserved.

FILE: Jimi Hendrix - First Rays Of The New Rising Sun.flac
  Size: 489006605 Hash: 955796CB1363BA2A33A8EE449B12770A Accuracy: -m0
  Conclusion: CDDA 100%
  Signature: 5ABF186025C4A49ADF590AD20C8FAE255EBE7A0C

Image

Продолжительность: 01:02:02
Трек лист:
01. Stone Free (3:47)
02. Valleys Of Neptune (4:04)
03. Bleeding Heart (6:23)
04. Hear My Train A Comin' (7:32)
05. Mr. Bad Luck (2:58)
06. Sunshine Of Your Love (6:47)
07. Lover Man (4:18)
08. Ships Passing Through The Night (5:52)
09. Fire (3:12)
10. Red House (8:23)
11. Lullaby For The Summer (3:49)
12. Crying Blue Rain (4:57)
Код:

REM GENRE "Hard Rock"
REM DATE 2010
REM DISCID B00E8A0C
REM COMMENT "ExactAudioCopy v1.0b3"
PERFORMER "Jimi Hendrix"
TITLE "Valleys Of Neptune"
FILE "Jimi Hendrix - Valleys Of Neptune.flac" WAVE
  TRACK 01 AUDIO
    TITLE "Stone Free"
    PERFORMER "Jimi Hendrix"
    INDEX 01 00:00:00
  TRACK 02 AUDIO
    TITLE "Valleys Of Neptune"
    PERFORMER "Jimi Hendrix"
    INDEX 01 03:46:51
  TRACK 03 AUDIO
    TITLE "Bleeding Heart"
    PERFORMER "Jimi Hendrix"
    INDEX 00 07:49:48
    INDEX 01 07:50:61
  TRACK 04 AUDIO
    TITLE "Hear My Train A Comin'"
    PERFORMER "Jimi Hendrix"
    INDEX 00 14:12:04
    INDEX 01 14:14:05
  TRACK 05 AUDIO
    TITLE "Mr. Bad Luck"
    PERFORMER "Jimi Hendrix"
    INDEX 00 21:44:21
    INDEX 01 21:46:05
  TRACK 06 AUDIO
    TITLE "Sunshine Of Your Love"
    PERFORMER "Jimi Hendrix"
    INDEX 00 24:42:74
    INDEX 01 24:44:14
  TRACK 07 AUDIO
    TITLE "Lover Man"
    PERFORMER "Jimi Hendrix"
    INDEX 00 31:30:33
    INDEX 01 31:31:39
  TRACK 08 AUDIO
    TITLE "Ships Passing Through The Night"
    PERFORMER "Jimi Hendrix"
    INDEX 00 35:47:06
    INDEX 01 35:49:02
  TRACK 09 AUDIO
    TITLE "Fire"
    PERFORMER "Jimi Hendrix"
    INDEX 01 41:41:11
  TRACK 10 AUDIO
    TITLE "Red House"
    PERFORMER "Jimi Hendrix"
    INDEX 01 44:53:26
  TRACK 11 AUDIO
    TITLE "Lullaby For The Summer"
    PERFORMER "Jimi Hendrix"
    INDEX 00 53:13:68
    INDEX 01 53:16:12
  TRACK 12 AUDIO
    TITLE "Crying Blue Rain"
    PERFORMER "Jimi Hendrix"
    INDEX 01 57:05:03
Код:
Exact Audio Copy V1.0 beta 3 from 29. August 2011

EAC extraction logfile from 21. April 2013, 17:42

Jimi Hendrix / Valleys Of Neptune

Used drive  : PLEXTOR BD-R  PX-B950SA   Adapter: 6  ID: 0

Read mode               : Secure
Utilize accurate stream : Yes
Defeat audio cache      : Yes
Make use of C2 pointers : No

Read offset correction                      : 6
Overread into Lead-In and Lead-Out          : No
Fill up missing offset samples with silence : Yes
Delete leading and trailing silent blocks   : No
Null samples used in CRC calculations       : Yes
Used interface                              : Native Win32 interface for Win NT & 2000

Used output format : Internal WAV Routines
Sample format      : 44.100 Hz; 16 Bit; Stereo

TOC of the extracted CD

     Track |   Start  |  Length  | Start sector | End sector
    ---------------------------------------------------------
        1  |  0:00.00 |  3:46.51 |         0    |    17000
        2  |  3:46.51 |  4:04.10 |     17001    |    35310
        3  |  7:50.61 |  6:23.19 |     35311    |    64054
        4  | 14:14.05 |  7:32.00 |     64055    |    97954
        5  | 21:46.05 |  2:58.09 |     97955    |   111313
        6  | 24:44.14 |  6:47.25 |    111314    |   141863
        7  | 31:31.39 |  4:17.38 |    141864    |   161176
        8  | 35:49.02 |  5:52.09 |    161177    |   187585
        9  | 41:41.11 |  3:12.15 |    187586    |   202000
       10  | 44:53.26 |  8:22.61 |    202001    |   239711
       11  | 53:16.12 |  3:48.66 |    239712    |   256877
       12  | 57:05.03 |  4:57.03 |    256878    |   279155

Range status and errors

Selected range

     Filename C:\Users\Meijin\Desktop\Lossless Galaxy ALLexxess\Jimi Hendrix\2010 Valleys Of Neptune (Sony Music Japan Mini LP BSCD2 2013)\Jimi Hendrix - Valleys Of Neptune.wav

     Peak level 100.0 %
     Extraction speed 8.2 X
     Range quality 99.9 %
     Test CRC B4B59E89
     Copy CRC B4B59E89
     Copy OK

No errors occurred

AccurateRip summary

Track  1  accurately ripped (confidence 2)  [37FCB664]  (AR v2)
Track  2  accurately ripped (confidence 2)  [9482944C]  (AR v2)
Track  3  accurately ripped (confidence 2)  [C04A8667]  (AR v2)
Track  4  accurately ripped (confidence 2)  [B5FF112B]  (AR v2)
Track  5  accurately ripped (confidence 2)  [749CB03D]  (AR v2)
Track  6  accurately ripped (confidence 2)  [7594D2AB]  (AR v2)
Track  7  accurately ripped (confidence 2)  [11181394]  (AR v2)
Track  8  accurately ripped (confidence 2)  [3A0DE38A]  (AR v2)
Track  9  accurately ripped (confidence 2)  [400250A1]  (AR v2)
Track 10  accurately ripped (confidence 2)  [E58287E7]  (AR v2)
Track 11  accurately ripped (confidence 2)  [8453918A]  (AR v2)
Track 12  accurately ripped (confidence 6)  [C622B678]  (AR v1)

All tracks accurately ripped

End of status report

==== Log checksum DEEAB95AD9B967D2E49936984CACE0867105938D3F308522E6080F429A8D4F73 ====

Код:
-----------------------

DON'T MODIFY THIS FILE

-----------------------

PERFORMER: auCDtect Task Manager, ver. 1.5.1RC6 build 1.5.1.7
Copyright (c) 2008-2010 y-soft. All rights reserved
http://y-soft.org

ANALYZER: auCDtect: CD records authenticity detector, version 0.8.2
Copyright (c) 2004 Oleg Berngardt. All rights reserved.
Copyright (c) 2004 Alexander Djourik. All rights reserved.

FILE: Jimi Hendrix - Valleys Of Neptune.flac
  Size: 415452638 Hash: 8837DFB5454A887F578DE00315BE73B8 Accuracy: -m0
  Conclusion: CDDA 100%
  Signature: 07CDE14695A88D585D5BEA515064EEB3E4A8BCC3


Время раздачи: с 01:00 до 19:00 МСК


Поглощение/вытеснение
Только с согласия релизера

Bigbeer
[NNM-Club.ru]_Jimi Hendrix Sony Blue-spec CD 2 Collection(2013).torrent
 Торрент: Платиновая раздача  Зарегистрирован
 
Скачать


 Зарегистрирован:   18 Май 2013 18:58:45
 Размер:   4,41 GB  (
 Рейтинг:   4,9 (Голосов: 70)
 Поблагодарили:   225
 Проверка:   Оформление проверено модератором 18 Май 2013 19:03:50
Как cкачать  ·  Как раздать  ·  Правильно оформить  ·  Поднять ратио!  
Bigbeer ®
RG Music
Сталкер
 
Стаж: 10 лет 4 мес.
Сообщений: 3264
Ratio: 264,898
Поблагодарили: 58402
100%
pirates.png
Приношу свои извинения, торрент обновлён, просьба скачать новый и перехешировать.

_________________
Исправили релиз напишите мне в ЛС со ссылкой на него.
user4
Стаж: 10 лет 2 мес.
Сообщений: 50
Ratio: 4,286
100%
russia.gif
Спасибо!
cccv
Стаж: 10 лет 6 мес.
Сообщений: 151
Ratio: 4,816
100%
Откуда: Куйбышев
ussr.gif
Огромное-преогромное спасибо! Просто офигительнейшая раздача.
Bigbeer ®
RG Music
Сталкер
 
Стаж: 10 лет 4 мес.
Сообщений: 3264
Ratio: 264,898
Поблагодарили: 58402
100%
pirates.png
Всем пожалуйста и приятного прослушивания!

_________________
Исправили релиз напишите мне в ЛС со ссылкой на него.
ROSTOV61RUS
Стаж: 7 лет 5 мес.
Сообщений: 10
Ratio: 10,221
100%
russia.gif
:стеб: Шикарная раздача
MikeTis
Стаж: 10 лет 2 мес.
Сообщений: 59
Ratio: 6,458
100%
Откуда: Зеленоград
russia.gif
ШШШШШШИИИИкарно!

_________________
Never stop exploring!!!
jjsqa
Стаж: 9 лет 9 мес.
Сообщений: 2
Ratio: 60,905
0%
Отлично, спасибо огромное!!!
Henryleo
Стаж: 6 лет 6 мес.
Сообщений: 2
0%
Good job friend :поклоняется: :смех:
Показать сообщения:   
Начать новую тему   Ответить на тему    Торрент-трекер NNM-Club -> Rock, Alternative, Punk, Metal -> Rock (Lossless) Часовой пояс: GMT + 3
Страница 1 из 1