Интеллигентный торрент-трекер
canvas not supported
Нас вместе: 4 187 623

Зной (1962) TVRip


 
 
RSS
Начать новую тему   Ответить на тему    Торрент-трекер NNM-Club -> Классика кино и Старые фильмы до 90-х -> Старые Отечественные Фильмы (HD*Rip/LQ, DVDRip, SATRip, VHSRip)
Автор Сообщение
ornellit ®
Стаж: 7 лет 2 мес.
Сообщений: 1733
Ratio: 81,557
Поблагодарили: 89458
100%
ukraine.gif
Зной (1962) TVRip
Русское название: Зной
Год выпуска: 1962
Жанр: Драма

Описание фильма:
Весной 1962 года Лариса Шепитько отправилась в Киргизию снимать свою дипломную работу - картину "Зной", по повести Чингиза Айтматова "Верблюжий глаз"...
Кемелю 17 лет. После окончания школы он приехал в Анахай осваивать целину и попал в бригаду Абакира, где давно сложились определенные отношения, основанные на жесткой авторитарности бригадира. Кемель со своей непосредственностью и молодым максимализмом нарушает это равновесие...

Режиссер: Лариса Шепитько
Актеры: Болотбек Шамшиев, Нурмухан Жантурин, Клара Юсупжанова, Кумболот Досумбаев, Даркуль Куюкова, К. Эсенов, Роза Табалдиева, Садыкбек Джаманов

Продолжительность: 01:16:50



Видеокодек: MPEG-4 AVC
Битрейт видео: ~600 Кбит/сек
Размер кадра: 640 x 480
Качество видео: TVRip
Аудиокодек: AAC 2.0
Битрейт аудио: 86 Кбит/сек
Субтитры: Итальянский (неотключаемые)
Фильм был удостоен премии за дебют на МКФ в Карловых Варах (1964).

Качество видео оставляет желать лучшего! Местами картинка распадается, иногда совсем пропадает (ненадолго). Претензии по качеству не принимаются. Если найдёте и выложите лучше, низкий вам поклон. Сам буду рад скачать, если будет лучше. А пока то, что есть...
В видеоряде присутствуют неотключаемые итальянские субтитры.
Общее
Полное имя : Зной.1962.TVRip.mp4
Формат : MPEG-4
Профиль формата : Base Media
Идентификатор кодека : isom
Размер файла : 374 Мбайт
Продолжительность : 1 ч. 16 м.
Режим общего битрейта : Переменный
Общий поток : 681 Кбит/сек
Программа кодирования : Lavf52.40.0

Видео
Идентификатор : 1
Формат : AVC
Формат/Информация : Advanced Video Codec
Профиль формата : High@L3.0
Параметр CABAC формата : Да
Параметр ReFrames формата : 3 кадра
Идентификатор кодека : avc1
Идентификатор кодека/Информация : Advanced Video Coding
Продолжительность : 1 ч. 16 м.
Вид битрейта : Переменный
Битрейт : 600 Кбит/сек
Ширина : 640 пикселей
Высота : 480 пикселей
Соотношение сторон : 4:3
Режим частоты кадров : Переменный
Частота кадров : 25,000 кадров/сек
Минимальная частота кадров : 8,333 кадров/сек
Максимальная частота кадров : 25,000 кадров/сек
Цветовое пространство : YUV
Субдискретизация насыщенности : 4:2:0
Битовая глубина : 8 бит
Тип развёртки : Прогрессивная
Бит/(Пиксели*Кадры) : 0.078
Размер потока : 324 Мбайт (86%)
Библиотека кодирования : x264 core 79
Настройки программы : cabac=1 / ref=3 / deblock=1:0:0 / analyse=0x3:0x113 / me=hex / subme=7 / psy=1 / psy_rd=1.0:0.0 / mixed_ref=1 / me_range=16 / chroma_me=1 / trellis=1 / 8x8dct=1 / cqm=0 / deadzone=21,11 / chroma_qp_offset=-2 / threads=24 / nr=0 / decimate=1 / mbaff=0 / constrained_intra=0 / bframes=3 / b_pyramid=0 / b_adapt=1 / b_bias=0 / direct=1 / wpredb=32 / wpredp=2 / keyint=250 / keyint_min=25 / scenecut=40 / rc_lookahead=40 / rc=abr / mbtree=1 / bitrate=600 / ratetol=6.7 / qcomp=0.60 / qpmin=10 / qpmax=51 / qpstep=4 / ip_ratio=1.41 / aq=1:1.00

Аудио
Идентификатор : 2
Формат : AAC
Формат/Информация : Advanced Audio Codec
Профиль формата : LC
Идентификатор кодека : 40
Продолжительность : 1 ч. 16 м.
Вид битрейта : Переменный
Битрейт : 87,8 Кбит/сек
Каналы : 2 канала
Расположение каналов : Front: L R
Частота : 44,1 КГц
Метод сжатия : С потерями
Задержка видео : 40 мс.
Размер потока : 48,2 Мбайт (13%)
Кадры:

Время раздачи: С 13:00 до 21:00 (до 5 скачавших)
Приятного просмотра!
[NNM-Club.ru]_Znoy.1962.TVRip.mp4.torrent
 Торрент: Золотая раздача  Зарегистрирован
 
Примагнититься
Free Leech
Зарегистрируйтесь и скачайте торрент!
14,9 KB
 Зарегистрирован:   20 Май 2013 16:07:59
 Размер:   374 MB  (
 Рейтинг:   4,3 (Голосов: 13)
 Поблагодарили:   33
 Проверка:   Оформление проверено модератором 20 Май 2013 22:11:11
Как cкачать  ·  Как раздать  ·  Правильно оформить  ·  Поднять ратио!  
Показать сообщения:   
Начать новую тему   Ответить на тему    Торрент-трекер NNM-Club -> Классика кино и Старые фильмы до 90-х -> Старые Отечественные Фильмы (HD*Rip/LQ, DVDRip, SATRip, VHSRip) Часовой пояс: GMT + 3
Страница 1 из 1