Классический форум-трекер
canvas not supported
Нас вместе: 4 094 836

Корпорация монстров / Monsters, Inc. (2001) BDRip [1080p] [Вертикальная анаморфная стереопара 3D]


 
 
RSS
Начать новую тему   Ответить на тему    Торрент-трекер NNM-Club -> Мультфильмы -> Зарубежные Мультфильмы (3D)
Автор Сообщение
igor nisan ®
RG Всё лучшее - детям!
 
Стаж: 8 лет 4 мес.
Сообщений: 740
Ratio: 49,336
Поблагодарили: 98226
100%
ukraine.gif
Корпорация монстров / Monsters, Inc. (2001) BDRip
Русское название: Корпорация монстров
Оригинальное название: Monsters, Inc.
Год выпуска: 2001
Жанр: Мультфильм, Фэнтези, Комедия, Приключения, Семейный

Описание:
Склизский гад в сливном бачке, мохнатый зверь, похожий на чудовище из «Аленького цветочка», гигантские мокрицы под кроватью — все они существуют на самом деле. Все, что им нужно — пугать детей, потому что из детских криков они получают электричество.

Полнометражный мультфильм рассказывает о кризисах в мире монстров, их жизни. Но однажды вся мирная жизнь монстров оказывается под угрозой: в их мир попадает ребенок. А с детьми столько хлопот, что они могут довести даже монстров.

Режиссер: Пит Доктер, Дэвид Силверман, Ли Анкрич
Персонажи: Джон Гудман, Билли Кристал, Мэри Гиббс, Стив Бушеми, Джеймс Коберн, Дженнифер Тилли, Боб Питерсон, Джон Ратценбергер, Фрэнк Оз, Дэниэл Джерсон
Роли дублировали: Сергей Паршин, Олег Куликович, Лидия Семёнова, Евгений Дятлов, Борис Улитин
Продолжительность: 01:32:08
Перевод: Дублированный
Дата мировой премьеры: 28 октября 2001
Дата российской премьеры: 21 марта 2002, «Каскад»
Дата российского ре-релиза: 17 января 2013, «WDSSPR»
Дата выхода DVD релиза: 24 мая 2011, «Уолт Дисней Компани СНГ»
Дата выхода BLU-RAY релиза: 22 октября 2009, «Уолт Дисней Компани СНГ»
Видеокодек: MPEG-4 AVC/H.264
Битрейт видео: ~11,2 Мбит/сек
Размер кадра: 1920x1080
Качество видео: BDRip [BD-EUR]
Аудио №1: AC3 5.1 640 kbps - Русский
Аудио №2: AC3 5.1 640 kbps - Английский
Справа и слева у видеоряда обрезано по 39р, что дает возможность просмотра на полный экран (без черных полос) на телевизорах с соотношением сторон 16:9 без изменения пропорций. На мой взгляд плюсы данных рипов- это более глубокое восприятие 3D-эффектов (конечно там где они есть) К минусам отнесу- вынужденное обрезание кадра по бокам. Так-что господа- выбор за вами! Всем приятного просмотра!
Общее
Уникальный идентификатор : 237639454393270014023913574886596326983 (0xB2C7B1B1BE105FB1831903CE8C06B647)
Полное имя : E:\my films\MONST_INC_3D.mkv
Формат : Matroska
Версия формата : Version 2
Размер файла : 8,19 Гбайт
Продолжительность : 1 ч. 32 м.
Общий поток : 12,7 Мбит/сек
Название фильма : MONST_INC_3D_CROP_O/U
Дата кодирования : UTC 2013-05-26 07:09:47
Программа кодирования : mkvmerge v5.7.0 ('The Whirlwind') built on Aug 7 2012 14:11:40
Библиотека кодирования : libebml v1.2.3 + libmatroska v1.3.0

Видео
Идентификатор : 1
Формат : AVC
Формат/Информация : Advanced Video Codec
Профиль формата : High@L4.1
Параметр CABAC формата : Да
Параметр ReFrames формата : 4 кадра
Идентификатор кодека : V_MPEG4/ISO/AVC
Продолжительность : 1 ч. 32 м.
Битрейт : 11,2 Мбит/сек
Ширина : 1920 пикселей
Высота : 1080 пикселей
Соотношение сторон : 16:9
Режим частоты кадров : Постоянный
Частота кадров : 23,976 кадра/сек
Цветовое пространство : YUV
Субдискретизация насыщенности : 4:2:0
Битовая глубина : 8 бит
Тип развёртки : Прогрессивная
Бит/(Пиксели*Кадры) : 0.225
Размер потока : 7,21 Гбайт (88%)
Заголовок : rip by I/N
Библиотека кодирования : x264 core 128 r2216M 198a7ea
Настройки программы : cabac=1 / ref=4 / deblock=1:-3:-3 / analyse=0x3:0x133 / me=umh / subme=9 / psy=1 / psy_rd=1.00:0.10 / mixed_ref=1 / me_range=32 / chroma_me=1 / trellis=2 / 8x8dct=1 / cqm=1 / deadzone=21,11 / fast_pskip=1 / chroma_qp_offset=-3 / threads=4 / lookahead_threads=1 / sliced_threads=0 / nr=0 / decimate=1 / interlaced=0 / bluray_compat=0 / constrained_intra=0 / bframes=4 / b_pyramid=2 / b_adapt=2 / b_bias=0 / direct=1 / weightb=1 / open_gop=0 / weightp=2 / keyint=230 / keyint_min=23 / scenecut=40 / intra_refresh=0 / rc_lookahead=60 / rc=crf / mbtree=1 / crf=16.0 / qcomp=0.60 / qpmin=4 / qpmax=69 / qpstep=8 / vbv_maxrate=40000 / vbv_bufsize=30000 / crf_max=30.0 / nal_hrd=none / ip_ratio=1.40 / aq=1:0.70
Default : Да
Forced : Да

Аудио #1
Идентификатор : 2
Формат : AC-3
Формат/Информация : Audio Coding 3
Расширение режима : CM (complete main)
Параметр Endianness формата : Big
Идентификатор кодека : A_AC3
Продолжительность : 1 ч. 32 м.
Вид битрейта : Постоянный
Битрейт : 640 Кбит/сек
Каналы : 6 каналов
Расположение каналов : Front: L C R, Side: L R, LFE
Частота : 48,0 КГц
Битовая глубина : 16 бит
Метод сжатия : С потерями
Задержка видео : 27 мс.
Размер потока : 422 Мбайт (5%)
Заголовок : Дубляж BD-EUR
Язык : Russian
Default : Да
Forced : Да

Аудио #2
Идентификатор : 3
Формат : AC-3
Формат/Информация : Audio Coding 3
Расширение режима : CM (complete main)
Параметр Endianness формата : Big
Идентификатор кодека : A_AC3
Продолжительность : 1 ч. 32 м.
Вид битрейта : Постоянный
Битрейт : 640 Кбит/сек
Каналы : 6 каналов
Расположение каналов : Front: L C R, Side: L R, LFE
Частота : 48,0 КГц
Битовая глубина : 16 бит
Метод сжатия : С потерями
Задержка видео : 27 мс.
Размер потока : 422 Мбайт (5%)
Заголовок : Original
Язык : English
Default : Нет
Forced : Нет

Меню
00:00:00.000 : en:(01)00:00:00:000
00:01:33.176 : en:(02)00:01:33:176
00:03:07.770 : en:(03)00:03:07:770
00:04:51.416 : en:(04)00:04:51:416
00:07:17.353 : en:(05)00:07:17:353
00:09:12.051 : en:(06)00:09:12:051
00:10:44.226 : en:(07)00:10:44:226
00:11:54.505 : en:(08)00:11:54:505
00:17:26.837 : en:(09)00:17:26:837
00:20:07.289 : en:(10)00:20:07:289
00:22:05.115 : en:(11)00:22:05:115
00:25:49.965 : en:(12)00:25:49:965
00:28:36.681 : en:(13)00:28:36:673
00:31:08.374 : en:(14)00:31:08:366
00:34:52.056 : en:(15)00:34:52:048
00:36:57.848 : en:(16)00:36:57:840
00:38:52.629 : en:(17)00:38:52:621
00:40:30.310 : en:(18)00:40:30:302
00:43:36.913 : en:(19)00:43:36:905
00:45:32.446 : en:(20)00:45:32:438
00:48:10.312 : en:(21)00:48:10:304
00:50:40.211 : en:(22)00:50:40:203
00:54:44.580 : en:(23)00:54:44:572
00:57:32.915 : en:(24)00:57:32:907
01:03:45.871 : en:(25)01:03:45:863
01:06:29.034 : en:(26)01:06:29:026
01:07:30.429 : en:(27)01:07:30:421
01:13:56.565 : en:(28)01:13:56:557
01:17:54.260 : en:(29)01:17:54:252
01:21:29.809 : en:(30)01:21:29:801
01:24:13.014 : en:(31)01:24:13:006
01:25:11.322 : en:(32)01:25:11:314
Проверено на встроенном плейере ТВ Samsung-D6500
Скриншоты:



Корпорация монстров на NNm-club
Время раздачи: 24/7 - круглосуточно до 10 скачавших
[NNM-Club.ru]_MONST_INC_3D.mkv.torrent
 Торрент: Платиновая раздача  Зарегистрирован
 
Скачать


Примагнититься
 Зарегистрирован:   26 Май 2013 11:04:16
 Размер:   8,19 GB  (
 Рейтинг:   4,9 (Голосов: 56)
 Поблагодарили:   229
 Проверка:   Оформление проверено модератором 26 Май 2013 11:41:34
Как cкачать  ·  Как раздать  ·  Правильно оформить  ·  Поднять ратио!  
igor nisan ®
RG Всё лучшее - детям!
 
Стаж: 8 лет 4 мес.
Сообщений: 740
Ratio: 49,336
Поблагодарили: 98226
100%
ukraine.gif
Релиз на замену этому: Корпорация монстров / Monsters, Inc. (2001) BDRip, полностью переделанный с другого исходника - без рассинхрона аудио/видео
Показать сообщения:   
Начать новую тему   Ответить на тему    Торрент-трекер NNM-Club -> Мультфильмы -> Зарубежные Мультфильмы (3D) Часовой пояс: GMT + 3
Страница 1 из 1