Классический форум-трекер
canvas not supported
Нас вместе: 4 095 038

Корпорация монстров / Monsters, Inc. (2001) BDRip [1080p] [Полная вертикальная стереопара 3D]


 
 
RSS
Начать новую тему   Ответить на тему    Торрент-трекер NNM-Club -> Мультфильмы -> Зарубежные Мультфильмы (3D)
Автор Сообщение
igor nisan ®
RG Всё лучшее - детям!
 
Стаж: 8 лет 4 мес.
Сообщений: 740
Ratio: 49,336
Поблагодарили: 98237
100%
ukraine.gif
Корпорация монстров / Monsters, Inc. (2001) BDRip
Производство: США, Pixar
Жанр: Мультфильм, Фэнтези, Комедия, Приключения, Семейный

Описание:
Склизский гад в сливном бачке, мохнатый зверь, похожий на чудовище из «Аленького цветочка», гигантские мокрицы под кроватью — все они существуют на самом деле. Все, что им нужно — пугать детей, потому что из детских криков они получают электричество.

Полнометражный мультфильм рассказывает о кризисах в мире монстров, их жизни. Но однажды вся мирная жизнь монстров оказывается под угрозой: в их мир попадает ребенок. А с детьми столько хлопот, что они могут довести даже монстров.

Режиссер: Пит Доктер, Дэвид Силверман, Ли Анкрич
Персонажи: Джон Гудман Билли Кристал Мэри Гиббс Стив Бушеми Джеймс Коберн Дженнифер Тилли Боб Питерсон Джон Ратценбергер Фрэнк Оз Дэниэл Джерсон
Роли дублировали: Сергей Паршин, Олег Куликович, Лидия Семёнова, Евгений Дятлов, Борис Улитин
Продолжительность: 01:32:38
Перевод: Дублированный
Дата мировой премьеры: 28 октября 2001
Дата российской премьеры: 21 марта 2002, «Каскад»
Дата российского ре-релиза: 17 января 2013, «WDSSPR»
Дата выхода DVD релиза: 24 мая 2011, «Уолт Дисней Компани СНГ»
Дата выхода BLU-RAY релиза: 22 октября 2009, «Уолт Дисней Компани СНГ»
Видеокодек: MPEG-4 AVC/H.264
Битрейт видео: ~21,2 Мбит/сек
Размер кадра: 1920x2064
Качество видео: BDRip [BD-EUR]
Аудио №1: AC3 5.1 640 kbps - Русский
Аудио №2: AC3 5.1 640 kbps - Английский
Общее
Уникальный идентификатор : 186431570106921849155412961805563584406 (0x8C416A12804A569EB8CAFDB97197DF96)
Полное имя : G:\Full 3Drip\MONSTERS_INC_3D.mkv
Формат : Matroska
Версия формата : Version 2
Размер файла : 14,8 Гбайт
Продолжительность : 1 ч. 32 м.
Общий поток : 22,9 Мбит/сек
Название фильма : MONSTERS_INC_3D_FULL_O/U
Дата кодирования : UTC 2013-05-24 18:41:00
Программа кодирования : mkvmerge v5.7.0 ('The Whirlwind') built on Aug 7 2012 14:11:40
Библиотека кодирования : libebml v1.2.3 + libmatroska v1.3.0

Видео
Идентификатор : 1
Формат : AVC
Формат/Информация : Advanced Video Codec
Профиль формата : High@L5.1
Параметр CABAC формата : Да
Параметр ReFrames формата : 5 кадров
Идентификатор кодека : V_MPEG4/ISO/AVC
Продолжительность : 1 ч. 32 м.
Битрейт : 21,2 Мбит/сек
Ширина : 1920 пикселей
Высота : 2064 пикселя
Соотношение сторон : 0,930
Соотношение сторон в оригинале : 16:9
Режим частоты кадров : Постоянный
Частота кадров : 23,976 кадра/сек
Цветовое пространство : YUV
Субдискретизация насыщенности : 4:2:0
Битовая глубина : 8 бит
Тип развёртки : Прогрессивная
Бит/(Пиксели*Кадры) : 0.223
Размер потока : 13,7 Гбайт (92%)
Заголовок : rip by I/N
Библиотека кодирования : x264 core 128 r2216M 198a7ea
Настройки программы : cabac=1 / ref=5 / deblock=1:-2:-2 / analyse=0x3:0x133 / me=umh / subme=10 / psy=1 / psy_rd=0.40:0.15 / mixed_ref=1 / me_range=24 / chroma_me=1 / trellis=2 / 8x8dct=1 / cqm=0 / deadzone=6,6 / fast_pskip=1 / chroma_qp_offset=-3 / threads=4 / lookahead_threads=1 / sliced_threads=0 / nr=0 / decimate=0 / interlaced=0 / bluray_compat=0 / constrained_intra=0 / bframes=2 / b_pyramid=2 / b_adapt=2 / b_bias=0 / direct=1 / weightb=1 / open_gop=0 / weightp=2 / keyint=230 / keyint_min=23 / scenecut=40 / intra_refresh=0 / rc_lookahead=60 / rc=crf / mbtree=1 / crf=18.0 / qcomp=0.80 / qpmin=0 / qpmax=69 / qpstep=4 / ip_ratio=1.10 / aq=1:0.70
Default : Да
Forced : Да

Аудио #1
Идентификатор : 2
Формат : AC-3
Формат/Информация : Audio Coding 3
Расширение режима : CM (complete main)
Параметр Endianness формата : Big
Идентификатор кодека : A_AC3
Продолжительность : 1 ч. 32 м.
Вид битрейта : Постоянный
Битрейт : 640 Кбит/сек
Каналы : 6 каналов
Расположение каналов : Front: L C R, Side: L R, LFE
Частота : 48,0 КГц
Битовая глубина : 16 бит
Метод сжатия : С потерями
Размер потока : 424 Мбайт (3%)
Заголовок : Дубляж (BD EUR)
Язык : Russian
Default : Да
Forced : Да

Аудио #2
Идентификатор : 3
Формат : AC-3
Формат/Информация : Audio Coding 3
Расширение режима : CM (complete main)
Параметр Endianness формата : Big
Идентификатор кодека : A_AC3
Продолжительность : 1 ч. 32 м.
Вид битрейта : Постоянный
Битрейт : 640 Кбит/сек
Каналы : 6 каналов
Расположение каналов : Front: L C R, Side: L R, LFE
Частота : 48,0 КГц
Битовая глубина : 16 бит
Метод сжатия : С потерями
Размер потока : 424 Мбайт (3%)
Заголовок : Original
Язык : English
Default : Нет
Forced : Нет

Меню
00:00:00.000 : en:(01)00:00:00:000
00:01:33.092 : en:(02)00:01:33:092
00:03:07.604 : en:(03)00:03:07:604
00:04:51.124 : en:(04)00:04:51:124
00:07:16.936 : en:(05)00:07:16:936
00:09:11.509 : en:(06)00:09:11:509
00:10:43.601 : en:(07)00:10:43:601
00:11:53.796 : en:(08)00:11:53:796
00:17:25.794 : en:(09)00:17:25:794
00:20:06.079 : en:(10)00:20:06:079
00:22:03.780 : en:(11)00:22:03:780
00:25:48.421 : en:(12)00:25:48:421
00:28:34.963 : en:(13)00:28:34:963
00:31:06.489 : en:(14)00:31:06:489
00:34:49.962 : en:(15)00:34:49:962
00:36:55.630 : en:(16)00:36:55:630
00:38:50.286 : en:(17)00:38:50:286
00:40:27.883 : en:(18)00:40:27:883
00:43:34.278 : en:(19)00:43:34:278
00:45:29.726 : en:(20)00:45:29:726
00:48:07.426 : en:(21)00:48:07:426
00:50:37.159 : en:(22)00:50:37:159
00:54:41.277 : en:(23)00:54:41:277
00:57:29.445 : en:(24)00:57:29:445
01:03:42.026 : en:(25)01:03:42:026
01:06:25.022 : en:(26)01:06:25:022
01:07:26.375 : en:(27)01:07:26:375
01:13:52.135 : en:(28)01:13:52:135
01:17:49.581 : en:(29)01:17:49:581
01:21:24.921 : en:(30)01:21:24:921
01:24:07.959 : en:(31)01:24:07:959
01:25:10.230 : en:(32)01:25:10:230
01:32:38.344 : en:(33)01:32:38:344
Данный рип сделан в формате 16:9 - специально для корректного воспроизведения 3Dсофт-плеерами сразу в полный экран.
Воспроизведение проверенно: Arcsoft TMT6 и Cyberlink PowerDVD11
Всем приятного просмотра!
На встроенных ТВ-плейерах показывать НЕ будет!!!
Скриншоты:


Корпорация монстров на NNm-club
Время раздачи: 24/7 - круглосуточно до 10 скачавших
[NNM-Club.ru]_MONSTERS_INC_3D.mkv.torrent
 Торрент: Платиновая раздача  Зарегистрирован
 
Скачать


Примагнититься
 Зарегистрирован:   26 Май 2013 12:13:47
 Размер:   14,8 GB  (
 Рейтинг:   4,7 (Голосов: 34)
 Поблагодарили:   93
 Проверка:   Оформление проверено модератором 26 Май 2013 16:18:43
Как cкачать  ·  Как раздать  ·  Правильно оформить  ·  Поднять ратио!  
Показать сообщения:   
Начать новую тему   Ответить на тему    Торрент-трекер NNM-Club -> Мультфильмы -> Зарубежные Мультфильмы (3D) Часовой пояс: GMT + 3
Страница 1 из 1