Классический форум-трекер
canvas not supported
Нас вместе: 4 079 482

Space Fantasia 2001 Yoru Monogatari / Space Fantasia 2001 Nights / Космическая фантазия [1987, OVA] DVDRip 480p HS


 
 
RSS
Начать новую тему   Ответить на тему    Торрент-трекер NNM-Club -> Аниме разное -> Аниме хардсаб
Автор Сообщение
loki ®
Стаж: 8 лет 9 мес.
Сообщений: 4714
Ratio: 65,855
Поблагодарили: 36853
100%
Откуда: Днепр
roody.gif

Space Fantasia 2001 Yoru Monogatari
Космическая фантазия

Жанр: фантастика, драма, приключения
Тип: OVA
Продолжительность: 57 мин.
Дата премьеры / период выхода: 21.06.1987
Производство/студия:
Автор оригинала: Хосино Юкинобу
Режиссер: Такэути Ёсио
Сценарий: Кацура Тихо
Снято по манге: 2001 Ya Monotogari
Качество видео: DVDRip
Релиз/Автор рипа: Kanjisub & Shinsen-Subs
Контейнер: AVI
Видео: XVID (8 bits) Гайд для MPC-HC
Битрейт видео: ~1124 Kbps; 23,976 fps
Размер кадра: 640x480 (4/3)
Аудио:
JAP; MP3; 2ch; 48.0 KHz; 148 Kbps
Субтитры:
ENG; HS (хардсаб)
RUS; Aragami Fansubs ASS (ext)
Описание:
Чистая научная фантастика. Если почитать книги этого жанра конца 80-х, а потом посмотреть это аниме, можно найти очень много общего. Возможно, поэтому сюжет продуман и обоснован, что лично мне очень понравилось. Никакого кавая здесь нет, и все персонажи очень реалистичны (в рамках жанра, конечно). Само действие делится на три логически завершенные части, каждая часть описывает события в определенный временной промежуток, происходившие с разными поколениями одной и той же семьи. В век стремительного начала освоения космоса в умах людей рождались самые на первый взляд безумные идеи. Например, отправить в космос за тысячи световых лет корабль, на борту которого в замороженном состоянии "до востребования" находится биологический материал, необходимый для рождения людей...
Рисовка, конечно, соответствующая времени выхода аниме в свет, но вполне достойная. В общем, любителям научной фантастики посвящается.
© KroshkaRu.
Общее
Полное имя : [Kanjisub_&_Shinsen-Subs]_Space_Fantasia_2001_Nights_[9BD50CFA].avi
Формат : AVI
Формат/Информация : Audio Video Interleave
Размер файла : 524 Мбайт
Продолжительность : 56 м.
Режим общего битрейта : Переменный
Общий поток : 1286 Кбит/сек
Название фильма : Space Fantasia 2001 Nights
Режиссёр : Kanjisub+ShinsenSubs
Тема : Space Fantasia 2001 Nights
Программа кодирования : Nandub v1.0rc2
Библиотека кодирования : Nandub build 1852/release

Видео
Идентификатор : 0
Формат : MPEG-4 Visual
Профиль формата : Advanced Simple@L5
Параметр BVOP формата : 2
Параметр QPel формата : Да
Параметр GMC формата : Без точки перехода
Параметр матрицы формата : Default (H.263)
Идентификатор кодека : XVID
Идентификатор кодека/Подсказка : XviD
Продолжительность : 56 м.
Битрейт : 1124 Кбит/сек
Ширина : 640 пикселей
Высота : 480 пикселей
Соотношение сторон : 4:3
Частота кадров : 23,976 кадра/сек
Цветовое пространство : YUV
Субдискретизация насыщенности : 4:2:0
Битовая глубина : 8 бит
Тип развёртки : Прогрессивная
Метод сжатия : С потерями
Бит/(Пиксели*Кадры) : 0.153
Размер потока : 458 Мбайт (87%)
Библиотека кодирования : XviD 1.1.0 (UTC 2005-11-22)

Аудио
Идентификатор : 1
Формат : MPEG Audio
Версия формата : Version 1
Профиль формата : Layer 3
Режим : Joint stereo
Расширение режима : MS Stereo
Идентификатор кодека : 55
Идентификатор кодека/Подсказка : MP3
Продолжительность : 56 м.
Вид битрейта : Переменный
Битрейт : 148 Кбит/сек
Каналы : 2 канала
Частота : 48,0 КГц
Метод сжатия : С потерями
Размер потока : 60,4 Мбайт (12%)
Выравнивание : Соединение по промежуткам
Продолжительность промежутка : 24 мс. (0,58 видеокадр)
Время предзагрузки промежутка : 205 мс.
Official page || ANN || AniDB || MAL || World Art



Время раздачи: 24/7
[NNM-Club.ru]_Space Fantasia.torrent
 Торрент: Платиновая раздача  Зарегистрирован
 
Скачать


Примагнититься
 Зарегистрирован:   27 Май 2013 19:40:18
 Размер:   524 MB  (
 Рейтинг:   4,7 (Голосов: 35)
 Поблагодарили:   97
 Проверка:   Оформление проверено модератором 27 Май 2013 20:21:14
Как cкачать  ·  Как раздать  ·  Правильно оформить  ·  Поднять ратио!  
iliya163
Стаж: 7 лет 9 мес.
Сообщений: 95
Ratio: 33,424
100%
подпишусь под описанием, полностью согласен.
Показать сообщения:   
Начать новую тему   Ответить на тему    Торрент-трекер NNM-Club -> Аниме разное -> Аниме хардсаб Часовой пояс: GMT + 3
Страница 1 из 1