Классический форум-трекер
canvas not supported
Нас вместе: 4 079 122

Discovery. Гигантские чудовища: Ужасная птица / Mega Beasts: Terror Bird (2009) HDTVRip [H.264/720p]


 
 
RSS
Начать новую тему   Ответить на тему    Торрент-трекер NNM-Club -> Зарубежные TV-бренды -> Доисторический мир
Автор Сообщение
Отец Лоренцо ®
Uploader 1000+, Сталкер
Стаж: 7 лет 9 мес.
Сообщений: 4039
Ratio: 7393,141
Раздал: 1,0172 PB
Поблагодарили: 121830
100%
Откуда: Харьков, Украина
Discovery. Гигантские чудовища: Ужасная птица / Mega Beasts: Terror Bird (2009) HDTVRip [H.264/720p-LQ]
Русское название: Гигантские чудовища: Ужасная птица
Оригинальное название: Mega Beasts: Terror Bird
Страна: США
Режиссер / Телекомпания: Джон Джосеф / Discovery
Год выпуска: 2009
Жанр: Документальный, научно-популярный, доисторический мир

Описание: Эта ужасная птица - самая крупная из птиц, когда-либо населявших Землю - достигала 2-х метров высотой и весила более 130 килограммов. Она была способна быстро передвигаться по земле на двух ногах, и, догнав жертву, вышибала мозги и крушила кости одним ударом своего 45-сантиметрового клюва, а мелких грызунов заглатывала целиком.

Продолжительность: 00:43:43

Перевод: Одноголосый закадровый (профессиональный)

Видеокодек: MPEG-4 AVC/H.264
Битрейт видео: ~ 3 872 Кбит/с
Размер кадра: 1280 x 720
Качество видео: HDTVRip [720p-LQ]
Аудио:
1. [русский] AC3, 6 ch, 224 Кбит/с
2. [english] AC3, 6 ch, 384 Кбит/с
Общее
Уникальный идентификатор : 184832169293201511843392674028587277692 (0x8B0D61861F1F56BDAAF37E6F9B235D7C)
Полное имя : A:\Релизы\Discovery.MegaBeasts.Terror.Bird.HDTV.720p.mkv
Формат : Matroska
Версия формата : Version 1
Размер файла : 1,40 Гбайт
Продолжительность : 43 м.
Общий поток : 4571 Кбит/сек
Дата кодирования : UTC 2010-12-07 17:59:53
Программа кодирования : mkvmerge v2.5.3 ('Boogie') built on Mar 7 2009 15:00:41
Библиотека кодирования : libebml v0.7.7 + libmatroska v0.8.1

Видео
Идентификатор : 1
Формат : AVC
Формат/Информация : Advanced Video Codec
Профиль формата : High@L3.1
Параметр CABAC формата : Да
Параметр ReFrames формата : 4 кадра
Идентификатор кодека : V_MPEG4/ISO/AVC
Продолжительность : 43 м.
Битрейт : 3872 Кбит/сек
Ширина : 1280 пикселей
Высота : 720 пикселей
Соотношение сторон : 16:9
Частота кадров : 25,000 кадров/сек
Цветовое пространство : YUV
Субдискретизация насыщенности : 4:2:0
Битовая глубина : 8 бит
Тип развёртки : Прогрессивная
Бит/(Пиксели*Кадры) : 0.168
Размер потока : 1,18 Гбайт (85%)
Язык : English
Default : Да
Forced : Нет

Аудио #1
Идентификатор : 2
Формат : AC-3
Формат/Информация : Audio Coding 3
Расширение режима : CM (complete main)
Параметр Endianness формата : Big
Идентификатор кодека : A_AC3
Продолжительность : 43 м.
Вид битрейта : Постоянный
Битрейт : 224 Кбит/сек
Каналы : 6 каналов
Расположение каналов : Front: L C R, Side: L R, LFE
Частота : 48,0 КГц
Битовая глубина : 16 бит
Метод сжатия : С потерями
Задержка видео : 8 мс.
Размер потока : 70,0 Мбайт (5%)
Default : Да
Forced : Нет

Аудио #2
Идентификатор : 3
Формат : AC-3
Формат/Информация : Audio Coding 3
Расширение режима : CM (complete main)
Параметр Endianness формата : Big
Идентификатор кодека : A_AC3
Продолжительность : 43 м.
Вид битрейта : Постоянный
Битрейт : 384 Кбит/сек
Каналы : 6 каналов
Расположение каналов : Front: L C R, Side: L R, LFE
Частота : 48,0 КГц
Битовая глубина : 16 бит
Метод сжатия : С потерями
Задержка видео : 8 мс.
Размер потока : 120 Мбайт (8%)
Default : Нет
Forced : Нет
Скриншоты:




Пожалуйста, не уходите с раздачи - помогите докачать другим. Если понравился релиз - жмите кнопку "Спасибо"! :приветствую:

Время раздачи: 24 / 7

Серия "Гигантские чудовища / Mega Beasts" на NoNaMe Club
[NNM-Club.ru]_Discovery.MegaBeasts.Terror.Bird.HDTV.720p.mkv.torrent
 Торрент: Платиновая раздача  Зарегистрирован
 
Скачать


 Зарегистрирован:   28 Май 2013 23:24:29
 Размер:   1,4 GB  (
 Рейтинг:   4,8 (Голосов: 22)
 Поблагодарили:   103
 Проверка:   Оформление проверено модератором 28 Май 2013 23:25:19
Как cкачать  ·  Как раздать  ·  Правильно оформить  ·  Поднять ратио!  
Загрузка...
prodox
Стаж: 9 лет 1 мес.
Сообщений: 120
Ratio: 2,292
100%
Откуда: с марса
Это птэнец орела!
Показать сообщения:   
Начать новую тему   Ответить на тему    Торрент-трекер NNM-Club -> Зарубежные TV-бренды -> Доисторический мир Часовой пояс: GMT + 3
Страница 1 из 1