Классический форум-трекер
canvas not supported
Нас вместе: 4 078 983

Вижу цель (1978) SATRip


 
 
RSS
Начать новую тему   Ответить на тему    Торрент-трекер NNM-Club -> Классика кино и Старые фильмы до 90-х -> Старые Отечественные Фильмы (HD*Rip/LQ, DVDRip, SATRip, VHSRip)
Автор Сообщение
nnmclub0112 ®
Стаж: 7 лет 9 мес.
Сообщений: 3894
Ratio: 96,997
Поблагодарили: 249600
100%
Вижу цель (1978) SATRip
Производство: киностудия им. Довженко
Год выпуска: 1978
Жанр: Военный

Описание:
Подполковник Клоков руководит строительством объекта ПВО. При подготовке площадки под строительство обнаруживается, что на этом месте было древнее поселение. Чтобы сохранить для археологов находку, необходимо перенести строительство. Но кто-то должен взять ответственность за это на себя...

Режиссер: Сурен Шахбазян
Актеры:
В ролях: Николай Олялин, Сергей Подгорный, Юрий Критенко, Гиви Тохадзе, Сергей Колесников, Нина Антонова, Валентин Белохвостик (озвучание - Павел Морозенко), Олег Васильков, Юрий Прокофьев, Алла Каштанова, Галина Калашникова, Марина Либакова-Ливанова, Людмила Чиншевая, Игорь Игнатов, Вячеслав Шамирян, Рубен Мартиросян, Владимир Бродский, Анатолий Барчук, Владимир Волков, Николай Панасьев, Александр Пархоменко, Виктор Черняков, Анатолий Юрченко

Продолжительность: 02:07:08



Видеокодек: Xvid
Битрейт видео: ~1493 Кбит/сек
Размер кадра: 640x480
Качество видео: SATRip
Аудиокодек: MP3, 2 ch
Битрейт аудио: 128 Кбит/сек
Общее
Полное имя : J:\Николай Олялин\Вижу цель\Вижу цель (1978) SATRip.avi
Формат : AVI
Формат/Информация : Audio Video Interleave
Размер файла : 1,46 Гбайт
Продолжительность : 2 ч. 8 м.
Общий поток : 1631 Кбит/сек
Программа кодирования : VirtualDubModRus 1.5.10.2 (build 2542/release)
Библиотека кодирования : VirtualDubMod build 2542/release

Видео
Идентификатор : 0
Формат : MPEG-4 Visual
Профиль формата : Advanced Simple@L5
Параметр BVOP формата : 2
Параметр QPel формата : Нет
Параметр GMC формата : Без точки перехода
Параметр матрицы формата : Default (H.263)
Режим смешивания : Сжатый битовый поток
Идентификатор кодека : XVID
Идентификатор кодека/Подсказка : XviD
Продолжительность : 2 ч. 8 м.
Битрейт : 1493 Кбит/сек
Ширина : 640 пикселей
Высота : 480 пикселей
Соотношение сторон : 4:3
Частота кадров : 25,000 кадров/сек
Цветовое пространство : YUV
Субдискретизация насыщенности : 4:2:0
Битовая глубина : 8 бит
Тип развёртки : Прогрессивная
Метод сжатия : С потерями
Бит/(Пиксели*Кадры) : 0.194
Размер потока : 1,34 Гбайт (92%)
Библиотека кодирования : XviD 63

Аудио
Идентификатор : 1
Формат : MPEG Audio
Версия формата : Version 1
Профиль формата : Layer 3
Идентификатор кодека : 55
Идентификатор кодека/Подсказка : MP3
Продолжительность : 2 ч. 8 м.
Вид битрейта : Постоянный
Битрейт : 128 Кбит/сек
Каналы : 2 канала
Частота : 48,0 КГц
Метод сжатия : С потерями
Размер потока : 117 Мбайт (8%)
Выравнивание : Соединение по промежуткам
Продолжительность промежутка : 40 мс. (1,00 видеокадр)
Время предзагрузки промежутка : 504 мс.
Библиотека кодирования : LAME3.97
Настройки программы : -m s -V 4 -q 1 -b 128
Скриншоты:


Время раздачи: С 09:00 до 23:00
[NNM-Club.ru]_Vizhu tsel' (1978) SATRip.avi.torrent
 Торрент: Платиновая раздача  Зарегистрирован
 
Скачать


Примагнититься
 Зарегистрирован:   29 Май 2013 13:20:20
 Размер:   1,46 GB  (
 Рейтинг:   4,4 (Голосов: 45)
 Поблагодарили:   150
 Проверка:   Оформление проверено модератором 30 Май 2013 00:38:50
Как cкачать  ·  Как раздать  ·  Правильно оформить  ·  Поднять ратио!  
Загрузка...
Показать сообщения:   
Начать новую тему   Ответить на тему    Торрент-трекер NNM-Club -> Классика кино и Старые фильмы до 90-х -> Старые Отечественные Фильмы (HD*Rip/LQ, DVDRip, SATRip, VHSRip) Часовой пояс: GMT + 3
Страница 1 из 1