Классический форум-трекер
canvas not supported
Нас вместе: 4 083 583
Платим за отзывы

П.И. Чайковский (P.I. Tchaikovsky)-Симфонии № 4,5 & 6 (Symphony No. 4,5 & 6) В. Гергиев (V. Gergiev) / Wiener Philarmoniker (2005) 3CD [FLAC|Lossless]<Симфонии>


 
 
RSS
Начать новую тему   Ответить на тему    Торрент-трекер NNM-Club -> Классика -> Оркестровая (Lossless)
Автор Сообщение
BolshoeR ®
Стаж: 10 лет 3 мес.
Сообщений: 275
Ratio: 24,301
Поблагодарили: 21533
100%
Откуда: от верблюда
russia.gif
Петр Ильич Чайковский
Валерий Абисалович Гергиев и Wiener Philarmoniker
Симфонии № 4,5 & 6 (Symphony No. 4,5 & 6) (2005)

Год: 1998, 2002, 2004
Жанр: Classical
Продолжительность: 02:12:56

Кодек: FLAC
Битрейт: Lossless
Тип рипа: image+.cue
Страна-производитель диска: EU
Издатель (лейбл): PHILIPS / DECCA
Номер по каталогу: 475 6315 PX3
CATALOG: 028947563150
Год издания диска: 03 Oct. 2005
Наличие сканов в содержимом раздачи: да
Треклист:

01. I. Andante sostenuto - Moderato con anima - Moderato assai, quasi Andante - Allegro vivo (18:57)
02. II. Andantino in modo di canzona (09:35)
03. III. Scherzo. Pizzicato ostinato - Allegro (05:33)
04. IV. Finale. Allegro con fuoco (08:29)

Прoдолжительность: 00:42:34
Код:

Exact Audio Copy V0.99 codebeta 5 from 4. May 2009

Отчёт EAC об извлечении, выполненном 2. июня 2011, 9:28

V. Gergiev & Wiener Philharmoniker / P.I. Tchaikovsky - Symphony No.4 in F minor, op. 36

Дисковод: _NEC    DVD_RW ND-4570A   Adapter: 0  ID: 0

Режим чтения                 : Достоверность
Использование точного потока : Да
Отключение кэша аудио        : Да
Использование указателей C2  : Нет

Коррекция смещения при чтении                     : 48
Способность читать области Lead-in и Lead-out     : Нет
Заполнение пропущенных сэмплов тишиной            : Да
Удаление блоков с тишиной в начале и конце        : Нет
При вычислениях CRC использовались нулевые сэмплы : Да
Интерфейс                                         : Встроенный Win32-интерфейс для Win NT/2000

Выходной формат          : Пользовательский кодировщик
Выбранный битрейт        : 128 kBit/s
Качество                 : Высокий
Добавление ID3-тэга      : Нет
Утилита сжатия           : D:\Soft\Exact Audio Copy\Flac\flac.exe
Дополнительные параметры : -5 -V -T "ARTIST=%a" -T "TITLE=%t" -T "ALBUM=%g" -T "DATE=%y" -T "TRACKNUMBER=%n" -T "GENRE=%m" -T "COMMENT=EAC FLAC -5" %s

TOC извлечённого CD

     Трек |   Старт  | Длительность | Начальный сектор | Конечный сектор
    ---------------------------------------------------------------------
       1  |  0:00.00 |   18:56.64   |           0      |      85263
       2  | 18:56.64 |    9:34.53   |       85264      |     128366
       3  | 28:31.42 |    5:33.35   |      128367      |     153376
       4  | 34:05.02 |    8:28.50   |      153377      |     191526

Характеристики диапазона извлечения и сообщения об ошибках

Выбранный диапазон

     Имя файла G:\music\V. Gergiev & Wiener Philharmoniker\P.I. Tchaikovsky - Symphony No.4 in F minor, op. 36\P.I. Tchaikovsky - Symphony No.4 in F minor, op. 36.wav

     Пиковый уровень 99.9 %
     Качество диапазона 100.0 %
     CRC теста F4A8A2B0
     CRC копии F4A8A2B0
     Копирование... OK

Ошибок не произошло

Конец отчёта
Код:

-----------------------

DON'T MODIFY THIS FILE

-----------------------

PERFORMER: auCDtect Task Manager, ver. 1.5.1RC6 build 1.5.1.7
Copyright (c) 2008-2010 y-soft. All rights reserved
http://y-soft.org

ANALYZER: auCDtect: CD records authenticity detector, version 0.8.2
Copyright (c) 2004 Oleg Berngardt. All rights reserved.
Copyright (c) 2004 Alexander Djourik. All rights reserved.

FILE: P.I. Tchaikovsky - Symphony No.4 in F minor, op. 36.flac
  Size: 182397552 Hash: 01CAF6CDDBDDCD8EF6BF4E6A2DE1CA38 Accuracy: -m0
  Conclusion: CDDA 100%
  Signature: 418F3A21EBE8F0422484FC3003A554F805074C69
Треклист:
01. I. Andante - Allegro con anima (14:57)
02. II. Andante cantabile, con alcuna licenza - Moderato con anima (13:28)
03. III. Valse. Allegro moderato (05:30)
04. IV. Finale. Andante maestoso - Allegro vivace (12:27)

Прoдолжительность: 00:46:22
Код:

Exact Audio Copy V0.99 codebeta 5 from 4. May 2009

Отчёт EAC об извлечении, выполненном 2. июня 2011, 9:50

V. Gergiev & Wiener Philharmoniker / P.I. Tchaikovsky - Symphony No.5 in E minor, op. 64

Дисковод: _NEC    DVD_RW ND-4570A   Adapter: 0  ID: 0

Режим чтения                 : Достоверность
Использование точного потока : Да
Отключение кэша аудио        : Да
Использование указателей C2  : Нет

Коррекция смещения при чтении                     : 48
Способность читать области Lead-in и Lead-out     : Нет
Заполнение пропущенных сэмплов тишиной            : Да
Удаление блоков с тишиной в начале и конце        : Нет
При вычислениях CRC использовались нулевые сэмплы : Да
Интерфейс                                         : Встроенный Win32-интерфейс для Win NT/2000

Выходной формат          : Пользовательский кодировщик
Выбранный битрейт        : 128 kBit/s
Качество                 : Высокий
Добавление ID3-тэга      : Нет
Утилита сжатия           : D:\Soft\Exact Audio Copy\Flac\flac.exe
Дополнительные параметры : -5 -V -T "ARTIST=%a" -T "TITLE=%t" -T "ALBUM=%g" -T "DATE=%y" -T "TRACKNUMBER=%n" -T "GENRE=%m" -T "COMMENT=EAC FLAC -5" %s

TOC извлечённого CD

     Трек |   Старт  | Длительность | Начальный сектор | Конечный сектор
    ---------------------------------------------------------------------
       1  |  0:00.32 |   14:57.00   |          32      |      67306
       2  | 14:57.32 |   13:28.00   |       67307      |     127906
       3  | 28:25.32 |    5:29.50   |      127907      |     152631
       4  | 33:55.07 |   12:27.25   |      152632      |     208681

Характеристики диапазона извлечения и сообщения об ошибках

Выбранный диапазон

     Имя файла G:\music\V. Gergiev & Wiener Philharmoniker\P.I. Tchaikovsky - Symphony No.5 in E minor, op. 64\P.I. Tchaikovsky - Symphony No.5 in E minor, op. 64.wav

     Пиковый уровень 95.1 %
     Качество диапазона 100.0 %
     CRC теста 465D0A06
     CRC копии 465D0A06
     Копирование... OK

Ошибок не произошло

Конец отчёта
Код:

-----------------------

DON'T MODIFY THIS FILE

-----------------------

PERFORMER: auCDtect Task Manager, ver. 1.5.1RC6 build 1.5.1.7
Copyright (c) 2008-2010 y-soft. All rights reserved
http://y-soft.org

ANALYZER: auCDtect: CD records authenticity detector, version 0.8.2
Copyright (c) 2004 Oleg Berngardt. All rights reserved.
Copyright (c) 2004 Alexander Djourik. All rights reserved.

FILE: P.I. Tchaikovsky - Symphony No.5 in E minor, op. 64.flac
  Size: 216889788 Hash: 3F13D31F478E874D5F27B10B09912F7F Accuracy: -m0
  Conclusion: CDDA 100%
  Signature: 5D4845B4AE93DB7C7D4BA61E8A47D6062F65FE97
Треклист:
01. I. Adagio - Allegro non troppo (18:19)
02. II. Allegro con grazia (06:59)
03. III. Allegro molto vivace (08:13)
04. IV. Finale. Adagio lamentoso - Andante (10:28)

Прoдолжительность: 00:44:00
Код:

Exact Audio Copy V0.99 codebeta 5 from 4. May 2009

Отчёт EAC об извлечении, выполненном 2. июня 2011, 9:06

V. Gergiev & Wiener Philharmoniker / P.I. Tchaikovsky - Symphony No.6 in B minor, op. 74 'Pathetique'

Дисковод: _NEC    DVD_RW ND-4570A   Adapter: 0  ID: 0

Режим чтения                 : Достоверность
Использование точного потока : Да
Отключение кэша аудио        : Да
Использование указателей C2  : Нет

Коррекция смещения при чтении                     : 48
Способность читать области Lead-in и Lead-out     : Нет
Заполнение пропущенных сэмплов тишиной            : Да
Удаление блоков с тишиной в начале и конце        : Нет
При вычислениях CRC использовались нулевые сэмплы : Да
Интерфейс                                         : Встроенный Win32-интерфейс для Win NT/2000

Выходной формат          : Пользовательский кодировщик
Выбранный битрейт        : 128 kBit/s
Качество                 : Высокий
Добавление ID3-тэга      : Нет
Утилита сжатия           : D:\Soft\Exact Audio Copy\Flac\flac.exe
Дополнительные параметры : -5 -V -T "ARTIST=%a" -T "TITLE=%t" -T "ALBUM=%g" -T "DATE=%y" -T "TRACKNUMBER=%n" -T "GENRE=%m" -T "COMMENT=EAC FLAC -5" %s

TOC извлечённого CD

     Трек |   Старт  | Длительность | Начальный сектор | Конечный сектор
    ---------------------------------------------------------------------
       1  |  0:00.00 |   18:19.15   |           0      |      82439
       2  | 18:19.15 |    6:59.15   |       82440      |     113879
       3  | 25:18.30 |    8:13.08   |      113880      |     150862
       4  | 33:31.38 |   10:28.37   |      150863      |     197999

Характеристики диапазона извлечения и сообщения об ошибках

Выбранный диапазон

     Имя файла G:\music\V. Gergiev & Wiener Philharmoniker\P.I. Tchaikovsky - Symphony No.6 in B minor, op. 74 'Pathetique'\P.I. Tchaikovsky - Symphony No.6 in B minor, op. 74 'Pathetique'.wav

     Пиковый уровень 99.9 %
     Качество диапазона 100.0 %
     CRC теста 705C640E
     CRC копии 705C640E
     Копирование... OK

Ошибок не произошло

Конец отчёта
Код:

-----------------------

DON'T MODIFY THIS FILE

-----------------------

PERFORMER: auCDtect Task Manager, ver. 1.5.1RC6 build 1.5.1.7
Copyright (c) 2008-2010 y-soft. All rights reserved
http://y-soft.org

ANALYZER: auCDtect: CD records authenticity detector, version 0.8.2
Copyright (c) 2004 Oleg Berngardt. All rights reserved.
Copyright (c) 2004 Alexander Djourik. All rights reserved.

FILE: P.I. Tchaikovsky - Symphony No.6 in B minor, op. 74 'Pathetique'.flac
  Size: 187581395 Hash: 4176466D14EF59835728B49F991AE736 Accuracy: -m0
  Conclusion: CDDA 100%
  Signature: 48024932744863CB9549167E656400880BCFF4EF
Vienna Philharmonic Orchestra / Valery Gergiev
Recorded:
Grosser Saal, Musikverein, Vienna, Austria, 17-21 October 2002 (Sym. 4),
Grosses Festspielhaus, Salzburg, Austria, July 1998 (Sym. 5) DDD,
Grosser Saal, Musikverein, Vienna, Austria, 2-4 September 2004 (Sym. 6).

YouTube
Время раздачи: в будни до 15:30 по выходным стараюсь весь день


Поглощение/вытеснение
Только с согласия релизера

DesideriuM

Реставрация релиза: svpavkin63
[NNM-Club.ru]_V. Gergiev & Wiener Philharmoniker [PHILIPS-DECCA 475 6315 PX3].torrent
 Торрент: Платиновая раздача  Зарегистрирован
 
Скачать


Примагнититься
 Зарегистрирован:   02 Июн 2013 09:13:36
 Размер:   663 MB  (
 Рейтинг:   4,9 (Голосов: 23)
 Поблагодарили:   125
 Проверка:   Оформление проверено модератором 05 Июн 2013 00:35:12
Как cкачать  ·  Как раздать  ·  Правильно оформить  ·  Поднять ратио!  
Loading...
Показать сообщения:   
Начать новую тему   Ответить на тему    Торрент-трекер NNM-Club -> Классика -> Оркестровая (Lossless) Часовой пояс: GMT + 3
Страница 1 из 1