Классический форум-трекер
canvas not supported
Нас вместе: 4 073 321

Останься / Stay (2005) BDRip [720p]


 
 
RSS
Начать новую тему   Ответить на тему    Торрент-трекер NNM-Club -> Зарубежное кино -> Зарубежные Фильмы (HD, UHD-LQ)
Автор Сообщение
maxwelex ®
Стаж: 9 лет 4 мес.
Сообщений: 346
Ratio: 226,178
Раздал: 105,3 TB
Поблагодарили: 25555
100%
Откуда: Северный Кавказ
ussr.gif
Останься / Stay (2005) BDRip

Русское название: Останься
Оригинальное название: Stay
Год выпуска: 2005
Жанр: Триллер, Драма, Детектив

Описание фильма:
Находящийся на грани помешательства студент Генри Лезем рассказывает психиатру Сэму Фостеру о том, что покончит с собой в субботу в полночь. Не желая допустить гибели Генри, Сэм решает сделать все от него зависящее, чтобы избавить парня от навязчивой идеи.
Он отправляется вместе с ним в путешествие по городу, в ходе которого и сам постепенно начинает погружаться в кошмарные иллюзии пациента, вместе с ним балансируя на тонкой грани между жизнью и смертью…

Режиссер: Марк Форстер
Актеры: Эван МакГрегор, Наоми Уоттс, Райан Гослинг, Элизабет Ризер, Боб Хоскинс, Джанин Гарофало, Б.Д. Вонг, Джон Торми, Хосе Рамон Росарио, Бекки Энн Бэйкер, Грегори Митчелл, Джессика Хехт, Стерлинг К. Браун, Эми Седарис и др.

Продолжительность: 01:38:55
Перевод: Профессиональный (двухголосый закадровый)-НТВ+, Профессиональный (одноголосый закадровый)-Немахов, Профессиональный (многоголосый закадровый)-Tycoon
Язык субтитров: Русский, английский
Вид субтитров: Вшитые отключаемые



Дата мировой премьеры: 24 сентября 2005

Видеокодек: MPEG-4 AVC/H.264
Битрейт видео: ~6800 Кбит/сек
Размер кадра: 1280x544
Качество видео: BDRip 720p
Аудиокодек: AC3

Аудио #1: Русский ( AC3 / 5.1 / 48 kHz / 448 kbps ) - Профессиональный (двухголосый) {НТВ+}
Аудио #2: Русский ( DTS / 5.1 / 48 kHz / 768 kbps ) - Профессиональный (одноголосый) {Немахов}
Аудио #3: Русский ( AC3 / 2.0 / 48 kHz / 192 kbps ) - Профессиональный (многоголосый) {Tycoon}
Аудио #4: Английский ( DTS / 5.1 / 48 kHz / 768 kbps )


Общее
Уникальный идентификатор : 208215898333126258745337571581586881264 (0x9CA4EC60A5CA500DACE30C16A404BAF0)
Полное имя : Останься_Stay.2005.BDRip.720p.mkv
Формат : Matroska
Версия формата : Version 2
Размер файла : 6,18 Гбайт
Продолжительность : 1 ч. 38 м.
Общий поток : 8949 Кбит/сек
Название фильма : Останься [2005, BDRip/720p] || ZUNE@HQFans
Дата кодирования : UTC 2011-08-29 03:22:49
Программа кодирования : mkvmerge v4.0.0 ('The Stars were mine') сборка от Jun 6 2010 16:18:42
Библиотека кодирования : libebml v1.0.0 + libmatroska v1.0.0
Attachment : Yes

Видео
Идентификатор : 1
Формат : AVC
Формат/Информация : Advanced Video Codec
Профиль формата : High@L4.1
Параметр CABAC формата : Да
Параметр ReFrames формата : 11 кадров
Идентификатор кодека : V_MPEG4/ISO/AVC
Продолжительность : 1 ч. 38 м.
Битрейт : 6800 Кбит/сек
Ширина : 1280 пикселей
Высота : 544 пикселя
Соотношение сторон : 2,35:1
Режим частоты кадров : Постоянный
Частота кадров : 23,976 кадра/сек
Цветовое пространство : YUV
Субдискретизация насыщенности : 4:2:0
Битовая глубина : 8 бит
Тип развёртки : Прогрессивная
Бит/(Пиксели*Кадры) : 0.407
Размер потока : 4,58 Гбайт (74%)
Заголовок : Останься [2005, BDRip/720p] || ZUNE@HQFans
Библиотека кодирования : x264 core 116 r2074 2641b9e
Настройки программы : cabac=1 / ref=11 / deblock=1:-3:-3 / analyse=0x3:0x113 / me=umh / subme=11 / psy=1 / psy_rd=1.00:0.10 / mixed_ref=1 / me_range=64 / chroma_me=1 / trellis=2 / 8x8dct=1 / cqm=0 / deadzone=21,11 / fast_pskip=0 / chroma_qp_offset=-3 / threads=12 / sliced_threads=0 / nr=0 / decimate=0 / interlaced=0 / bluray_compat=0 / constrained_intra=0 / bframes=11 / b_pyramid=2 / b_adapt=2 / b_bias=0 / direct=3 / weightb=1 / open_gop=0 / weightp=2 / keyint=250 / keyint_min=23 / scenecut=40 / intra_refresh=0 / rc_lookahead=40 / rc=2pass / mbtree=0 / bitrate=6800 / ratetol=1.0 / qcomp=0.60 / qpmin=0 / qpmax=69 / qpstep=4 / cplxblur=20.0 / qblur=0.5 / vbv_maxrate=40000 / vbv_bufsize=30000 / nal_hrd=none / ip_ratio=1.40 / pb_ratio=1.30 / aq=1:1.00
Язык : English
Default : Да
Forced : Да
Основные цвета : BT.709
Характеристики трансфера : BT.709
Коэффициенты матрицы : BT.709

Аудио #1
Идентификатор : 2
Формат : AC-3
Формат/Информация : Audio Coding 3
Расширение режима : CM (complete main)
Параметр Endianness формата : Big
Идентификатор кодека : A_AC3
Продолжительность : 1 ч. 38 м.
Вид битрейта : Постоянный
Битрейт : 448 Кбит/сек
Каналы : 6 каналов
Расположение каналов : Front: L C R, Side: L R, LFE
Частота : 48,0 КГц
Битовая глубина : 16 бит
Метод сжатия : С потерями
Размер потока : 317 Мбайт (5%)
Заголовок : DVO {НТВ+} [AC3 5.1@448kbps]
Язык : Russian
Default : Да
Forced : Да

Аудио #2
Идентификатор : 3
Формат : DTS
Формат/Информация : Digital Theater Systems
Идентификатор кодека : A_DTS
Продолжительность : 1 ч. 38 м.
Вид битрейта : Постоянный
Битрейт : 755 Кбит/сек
Каналы : 6 каналов
Расположение каналов : Front: L C R, Side: L R, LFE
Частота : 48,0 КГц
Битовая глубина : 24 бит
Метод сжатия : С потерями
Размер потока : 534 Мбайт (8%)
Заголовок : AVO {Немахов} [DTS 5.1@768kbps/24-bit]
Язык : Russian
Default : Нет
Forced : Нет

Аудио #3
Идентификатор : 4
Формат : AC-3
Формат/Информация : Audio Coding 3
Расширение режима : CM (complete main)
Параметр Endianness формата : Big
Идентификатор кодека : A_AC3
Продолжительность : 1 ч. 38 м.
Вид битрейта : Постоянный
Битрейт : 192 Кбит/сек
Каналы : 2 канала
Расположение каналов : Front: L R
Частота : 48,0 КГц
Битовая глубина : 16 бит
Метод сжатия : С потерями
Размер потока : 136 Мбайт (2%)
Заголовок : MVO {Tycoon} [AC3 2.0@192kbps]
Язык : Russian
Default : Нет
Forced : Нет

Аудио #4
Идентификатор : 5
Формат : DTS
Формат/Информация : Digital Theater Systems
Идентификатор кодека : A_DTS
Продолжительность : 1 ч. 38 м.
Вид битрейта : Постоянный
Битрейт : 755 Кбит/сек
Каналы : 6 каналов
Расположение каналов : Front: L C R, Side: L R, LFE
Частота : 48,0 КГц
Битовая глубина : 24 бит
Метод сжатия : С потерями
Размер потока : 534 Мбайт (8%)
Заголовок : Original [DTS 5.1@768kbps/24-bit]
Язык : English
Default : Нет
Forced : Нет

Текст #1
Идентификатор : 6
Формат : UTF-8
Идентификатор кодека : S_TEXT/UTF8
Идентификатор кодека/Информация : UTF-8 Plain Text
Заголовок : Full
Язык : Russian
Default : Нет
Forced : Нет

Текст #2
Идентификатор : 7
Формат : UTF-8
Идентификатор кодека : S_TEXT/UTF8
Идентификатор кодека/Информация : UTF-8 Plain Text
Заголовок : Full
Язык : English
Default : Нет
Forced : Нет

Меню
00:00:00.000 : :00:00:00.000
00:09:50.381 : :00:09:50.381
00:16:37.747 : :00:16:37.747
00:27:35.070 : :00:27:35.070
00:34:58.096 : :00:34:58.096
00:41:04.754 : :00:41:04.754
00:48:26.195 : :00:48:26.195
00:56:09.324 : :00:56:09.324
01:04:07.218 : :01:04:07.218
01:09:27.830 : :01:09:27.830
01:17:18.217 : :01:17:18.217
01:25:08.854 : :01:25:08.854


Скриншоты:








Время раздачи: с 10:00 до 23:00 ежедневно
[NNM-Club.ru]_Ostan'sya_Stay.2005.BDRip.720p.mkv.torrent
 Торрент: Платиновая раздача  Зарегистрирован
 
Скачать


 Зарегистрирован:   05 Июн 2013 13:08:23
 Размер:   6,18 GB  (
 Рейтинг:   4,8 (Голосов: 34)
 Поблагодарили:   179
 Проверка:   Оформление проверено модератором 05 Июн 2013 14:38:17
Как cкачать  ·  Как раздать  ·  Правильно оформить  ·  Поднять ратио!  
KuROni
Стаж: 7 лет 10 мес.
Сообщений: 233
Ratio: 1,399
100%
russia.gif
отзывы хорошие, заценю
Показать сообщения:   
Начать новую тему   Ответить на тему    Торрент-трекер NNM-Club -> Зарубежное кино -> Зарубежные Фильмы (HD, UHD-LQ) Часовой пояс: GMT + 3
Страница 1 из 1