Классический форум-трекер
canvas not supported
Нас вместе: 4 079 058

PBS Nature. В сердце джунглей / Deep Jungle (2005) HDTVRip [H.264/720p-LQ] [3 серии из 3]


 
 
RSS
Начать новую тему   Ответить на тему    Торрент-трекер NNM-Club -> Зарубежные TV-бренды -> PBS
Автор Сообщение
Отец Лоренцо ®
Uploader 1000+, Сталкер
Стаж: 7 лет 9 мес.
Сообщений: 4039
Ratio: 7393,141
Раздал: 1,0172 PB
Поблагодарили: 121833
100%
Откуда: Харьков, Украина
PBS Nature. В сердце джунглей / Deep Jungle (2005) HDTVRip [H.264/720p-LQ] [3 серии из 3]
Русское название: PBS Nature. В сердце джунглей
Оригинальное название: PBS Nature. Deep Jungle
Страна: США, Франция
Режиссер / Телекомпания: Мадлен Картер / Granada Wild, Thirteen, WNET New York, France 5
Год выпуска: 2005
Жанр: Документальный, природа

Описание фильма: Джунгли... Загадочные... Опасные... Здесь живет половина всех обитателей Земли. Уже много веков ученые пытаются понять этот мир, но до сих пор очень мало о нем знают. Но скоро положение изменится. Новое поколение исследователей готово раскрыть сокровенные тайны Джунглей. Сегодня мы последуем за первопроходцами XXI века. Их снаряжение - это лучшие образцы высоких технологий. Они увидят Джунгли такими, какими их никто и никогда ещё не видел...

Продолжительность: 3 х ~ 00:53:00

Перевод: Одноголосый закадровый (профессиональный)

Формат файла: MKV
Видеокодек: MPEG-4 H.264/AVC
Битрейт видео: ~3 940 kbps
Размер кадра: 1280 x 720
Качество видео: HDTVRip [720p-LQ]
Аудиокодек: AC3, 2.0
Битрейт аудио: 192 Кбит/с

Внимание! Во всех 3-х сериях этого релиза присутствуют отрывки небольшой длительности, на которых отсутствует перевод на русский язык.
1. Новый взгляд / New Frontiers:
Джунгли. Загадочные, опасные. Здесь живет половина всех обитателей Земли. Уже много веков ученые пытаются понять этот мир. Но до сих пор очень мало о нём знают. Но скоро - положение изменится. Новое поколение исследователей готово раскрыть сокровенные тайны джунглей. Сегодня мы последуем за первопроходцами 21-го века. Их снаряжение - это лучшие образцы высоких технологий. И они увидят джунгли такими, какими их еще никто никогда не видел. Это - новое поколение исследователей джунглей!
Скриншоты:


2. Лесные чудовища / Monsters of the Forest:
Деревья, которые убивают, большие птицы и гигантские кошки. Даже маленькие существа здесь жестоки. Добро пожаловать на Амазонку. Нам предстоит две вещи: мы будем охотиться на легендарное существо, и посмотрим в целом на работу здешней биологической машины. В завершение, мы покажем самого большого убийцу джунглей. Это история об огромном дереве, и о гигантском пауке, который, якобы, обитает в его тени.
Скриншоты:


3. Зверь в нас / The Beast Within:
Исследования джунглей становятся личными. Ученые смотрят в глаза нашим ближайшим родственникам, и наталкиваются на следы покинутых цивилизаций. Современные исследования джунглей похожи на высадку Индианы Джонса на Планету Обезьян. Джунгли открывают удивительные секреты. Некоторые из них шокируют, некоторые удивляют. Другие радуют. Эти открытия могут сказать нам, откуда мы пришли... и какое будущее нас ждёт. Ученые отправляются внутрь джунглей, чтобы узнать, что они могут рассказать о нас.
Скриншоты:

Скриншоты:



Общее
Уникальный идентификатор : 181971285837462002812021865441464504192 (0x88E6651451CDE8BB9E964AE5D3C94F80)
Полное имя : A:\Релизы\PBS.Nаture.Deep Jungle.BDRip.720p\1.Deep.Jungle.mkv
Формат : Matroska
Версия формата : Version 2
Размер файла : 1,57 Гбайт
Продолжительность : 53 м.
Общий поток : 4222 Кбит/сек
Дата кодирования : UTC 2011-08-25 20:28:58
Программа кодирования : mkvmerge v4.9.1 ('Ich will') сборка от Jul 11 2011 23:53:15
Библиотека кодирования : libebml v1.2.1 + libmatroska v1.1.1

Видео
Идентификатор : 1
Формат : MPEG-4 Visual
Профиль формата : Advanced Simple@L5
Параметр BVOP формата : Да
Параметр QPel формата : Нет
Параметр GMC формата : Без точки перехода
Параметр матрицы формата : Выборочная
Идентификатор кодека : XVID
Идентификатор кодека/Подсказка : XviD
Продолжительность : 53 м.
Битрейт : 3946 Кбит/сек
Ширина : 1280 пикселей
Высота : 720 пикселей
Соотношение сторон : 16:9
Частота кадров : 29,970 кадров/сек
Цветовое пространство : YUV
Субдискретизация насыщенности : 4:2:0
Битовая глубина : 8 бит
Тип развёртки : Прогрессивная
Метод сжатия : С потерями
Бит/(Пиксели*Кадры) : 0.143
Размер потока : 1,47 Гбайт (93%)
Библиотека кодирования : XviD 1.2.0.dev47 (UTC 2006-11-01)
Default : Да
Forced : Нет

Аудио
Идентификатор : 2
Формат : AC-3
Формат/Информация : Audio Coding 3
Расширение режима : CM (complete main)
Параметр Endianness формата : Big
Режим смешивания : Header stripping
Идентификатор кодека : A_AC3
Продолжительность : 53 м.
Вид битрейта : Постоянный
Битрейт : 192 Кбит/сек
Каналы : 2 канала
Расположение каналов : Front: L R
Частота : 48,0 КГц
Битовая глубина : 16 бит
Метод сжатия : С потерями
Размер потока : 73,2 Мбайт (5%)
Язык : Russian
Default : Да
Forced : Нет
Пожалуйста, не уходите с раздачи - помогите докачать другим. Если понравился релиз - жмите кнопку "Спасибо"! :приветствую:

Время раздачи: 24 / 7

"PBS. В сердце джунглей / Deep Jungle" на NoNaMe Club
[NNM-Club.ru]_PBS.Nature.Deep Jungle.BDRip.720p.torrent
 Торрент: Платиновая раздача  Зарегистрирован
 
Скачать


 Зарегистрирован:   06 Июн 2013 07:43:27
 Размер:   4,72 GB  (
 Рейтинг:   4,9 (Голосов: 20)
 Поблагодарили:   88
 Проверка:   Оформление проверено модератором 06 Июн 2013 08:43:59
Как cкачать  ·  Как раздать  ·  Правильно оформить  ·  Поднять ратио!  
sasha_s.m
Стаж: 10 лет 8 мес.
Сообщений: 301
Ratio: 6,068
100%
Откуда: Киев
ukraine.gif
Спасибо!!!
TY33
Стаж: 8 лет 10 мес.
Сообщений: 17
Ratio: 2,249
100%
Откуда: Донецк ДНР
Спасибо!!!
Показать сообщения:   
Начать новую тему   Ответить на тему    Торрент-трекер NNM-Club -> Зарубежные TV-бренды -> PBS Часовой пояс: GMT + 3
Страница 1 из 1