Классический форум-трекер
canvas not supported
Нас вместе: 4 095 125

Испытание верностью (серии 1-2 из 2) (2012) DVB


 
 
RSS
Начать новую тему   Ответить на тему    Торрент-трекер NNM-Club -> Архив торрентов -> Архив Сериалов, а также Архив Старого многосерийного кино до 90-х
Автор Сообщение
seperovych ®
Стаж: 9 лет 8 мес.
Сообщений: 1501
Ratio: 55,093
Раздал: 35,58 TB
Поблагодарили: 150056
100%
Откуда: Киев
ukraine.gif
Испытание верностью (серии 1-2 из 2) (2012) DVB
Русское название: Испытание верностью
Производство: Продюсерская компания "Медиапрофсоюз"
Год выпуска: 2012
Жанр: Мелодрама

Режиссер: Петр Кротенко
Актеры: Елена Дробышева, Сергей Кошонин, Мария Антипова, Светлана Зеленковская, Дмитрий Абазовик, Елена Стеценко, Татьяна Гаркуша, Владимир Шумков, Галина Кухальская, Любовь Румянцева, Андрей Карако, Ингрид Павлинова, Александр Аверков, Дмитрий Сорока, Игорь Сигов, Валерий Агаян, Виктор Васильев, Александр Островский, Инна Гончар, Андрей Королевич, Андрей Ковальчук

Описание фильма:
Алевтина – прекрасная хозяйка, замечательная жена и мать, чуткая дочь. Её дом – полная чаща. Оставив 20 лет назад карьеру ради любимого мужа Севы и став домохозяйкой, Аля не может остановиться и приносит всё новые жертвы на алтарь семьи, посвящая дому всю себя без остатка. Теперь её главная цель – сын Саша. Его нужно выучить, «поставить на ноги» и женить. Но вот беда: за котлетами, стиркой и уборкой Аля разучилась слышать своих близких, понимать их внутренний мир.
Так продолжается из года в год, пока однажды Сева не уходит к другой женщине – яркой и стильной Ксении. Новая пассия Севы не только сногсшибательно выглядит (в отличие от Али, превратившейся от добровольного домашнего рабства в «серую мышку»), но и искренне интересуется делами своего возлюбленного.
Счастье Али, столь ревностно хранимое ею, разбито. Она остается без денег, без работы, без связей. Словно испытывая героиню на прочность, судьба наносит ей еще один страшный удар – умирает мама…
Алевтине предстоит нешуточная борьба за личное счастье. Сумеет ли она в свои «сорок с хвостиком» изменить себя и снова объединить разрушенную семью?


Дата российской премьеры: 18.08.2012

Продолжительность: 2 x ~ 01:30:00
Качество видео: DVBRip

Видеокодек: MPEG-2
Битрейт видео: ~4500 Kbps
Размер кадра: 720x576 (4:3)
Аудиокодек: MP2
Битрейт аудио: 2 ch, 192 Kbps
Код:
Общее
Полное имя : E:\DOWNLOADS\Испытание верностью (2012) DVB\Испытание верностью - 01 серия.mpg
Формат : MPEG-PS
Размер файла : 2,95 Гбайт
Продолжительность : 1 ч. 29 м.
Режим общего битрейта : Переменный
Общий поток : 4747 Кбит/сек

Видео
Идентификатор : 224 (0xE0)
Формат : MPEG Video
Версия формата : Version 2
Профиль формата : Main@Main
Параметр BVOP формата : Да
Параметр матрицы формата : Выборочная
Параметр GOP формата : Variable
Продолжительность : 1 ч. 29 м.
Вид битрейта : Переменный
Битрейт : 4461 Кбит/сек
Максимальный битрейт : 15,0 Мбит/сек
Ширина : 720 пикселей
Высота : 576 пикселей
Соотношение сторон : 4:3
Частота кадров : 25,000 кадров/сек
Стандарт вещания : PAL
Цветовое пространство : YUV
Субдискретизация насыщенности : 4:2:0
Битовая глубина : 8 бит
Тип развёртки : Чересстрочная
Порядок развёртки : Верхнее поле первое
Метод сжатия : С потерями
Бит/(Пиксели*Кадры) : 0.430
TimeCode_FirstFrame : 00:00:00:00
TimeCode_Source : Group of pictures header
Размер потока : 2,77 Гбайт (94%)

Аудио
Идентификатор : 192 (0xC0)
Формат : MPEG Audio
Версия формата : Version 1
Профиль формата : Layer 2
Продолжительность : 1 ч. 29 м.
Вид битрейта : Постоянный
Битрейт : 192 Кбит/сек
Каналы : 2 канала
Частота : 48,0 КГц
Метод сжатия : С потерями
Размер потока : 122 Мбайт (4%)
Внимание! Раздача ведётся путём добавления новых серий; при каждом добавлении создаётся новый торрент. Чтобы начать скачивание новой серии, пользователям необходимо сделать следующее:
1. Остановить скачивание.
2. Удалить старый торрент у себя из клиента (старые серии удалять не нужно).
3. Скачать новый торрент и запустить его у себя в клиенте вместо старого, при этом указать клиенту путь в старую папку, куда и должно происходить скачивание новых серий.
Ваш клиент при этом должен произвести хеширование (проверку) старой папки (если не производит сам - помогите ему сделать это), и будет докачивать только те серии, которых у вас ещё нет. Старые серии при этом не удаляются, а продолжают раздаваться!
Если вы уже удалили старые серии, то предотвратить повторную закачку старых серий можно, отжав галочку в соответствующих местах при запуске нового торрента. По возможности, желательно не удалять старые серии как можно дольше, чтобы релизёр смог сконцентрироваться на новых сериях, а не продолжал раздавать старые.
Скриншоты:


Все раздачи сериала «Испытание верностью»

Время раздачи: с 10.00 до 20.00
[NNM-Club.ru]_Ispyitanie vernost'yu (2012) DVB.torrent
 Торрент:   Зарегистрирован
 
Зарегистрируйтесь и скачайте торрент!
29,4 KB

 Зарегистрирован:   16 Июн 2013 14:24:10
 Размер:   5,8 GB  (
 Рейтинг:   4 (Голосов: 18)
 Поблагодарили:   59
 Проверка:   Оформление проверено модератором 16 Июн 2013 22:13:23
Как cкачать  ·  Как раздать  ·  Правильно оформить  ·  Поднять ратио!  
Топик был перенесен из форума Отечественные сериалы в форум Архив Сериалов

Причина переноса: раздающего не было 3 месяца.

Исправил релиз - напиши ЛС DriverV, дав ссылку на релиз.
Если нет ответа 24 часа - нажми на кнопку "Обратить внимание модераторов".
Показать сообщения:   
Начать новую тему   Ответить на тему    Торрент-трекер NNM-Club -> Архив торрентов -> Архив Сериалов, а также Архив Старого многосерийного кино до 90-х Часовой пояс: GMT + 3
Страница 1 из 1