Классический форум-трекер
canvas not supported
Нас вместе: 4 074 664

Приключения Маши в Стране Чудес / Yugo and Lala (2012) WEBRip


 
 
RSS
Начать новую тему   Ответить на тему    Торрент-трекер NNM-Club -> Мультфильмы -> Зарубежные Мультфильмы (HD*Rip/LQ, DVDRip, SATRip, VHSRip)
Автор Сообщение
Sедой ®
Стаж: 8 лет 10 мес.
Сообщений: 3059
Ratio: 5117,534
Поблагодарили: 643588
100%
Откуда: Донецк
Приключения Маши в Стране Чудес / Yugo and Lala (2012) WEBRip
Русское название: Приключения Маши в Стране Чудес
Оригинальное название: Yugo and Lala
Производство: Китай / JiangSu Broadcasting Corporation
Год выпуска: 2012
Жанр: Мультфильм, Фэнтези, Приключения
Перевод: Дублированный
Субтитры: Отсутствуют

Дата мировой премьеры: 10 августа 2012
Дата российской премьеры: 18 апреля 2013, «Cinema Prestige»

Режиссер: Ван Юнфей
Персонажи: Лу Куи, Лью Лу, Менг Канлин

Описание:
Однажды 10-летней Маше повстречалось странное существо по имени Ники — белый полулев-полутигр, появившийся на свет из волшебного камня. С этого момента с девочкой начали происходить невероятные чудеса. Она внезапно обнаружила, что понимает язык животных. А вскоре ее и Ники проглотило огромное Облако-Кит. А в очень-очень трудную минуту на помощь друзьям пришел Дядя Миша, огромный дикий медведь, на лицо ужасный, но добрый внутри. А еще они отправились в Рай Животных — фантастическую страну чудес, куда могут попасть только 99 счастливчиков — один раз в десять лет. Но людям туда вход заказан, потому что человек, пробывший там более трех дней, навсегда превратится в животное…



Продолжительность: 01:16:13
Качество видео: WEBRip

Видеокодек: Xvid
Битрейт видео: ~2110 Kbit/s
Размер кадра: 720 x 400
Аудиокодек: AC3 2.0
Битрейт аудио: 448 Kbit/s
Общее
Полное имя : D:\Торренты\Приключения Маши в Стране Чудес.2012.WEBRip.avi
Формат : AVI
Формат/Информация : Audio Video Interleave
Размер файла : 1,37 Гбайт
Продолжительность : 1 ч. 16 м.
Общий поток : 2567 Кбит/сек
Программа кодирования : VirtualDubMod 1.5.10.2 (build 2540/release)
Библиотека кодирования : VirtualDubMod build 2540/release

Видео
Идентификатор : 0
Формат : MPEG-4 Visual
Профиль формата : Advanced Simple@L5
Параметр BVOP формата : 2
Параметр QPel формата : Нет
Параметр GMC формата : Без точки перехода
Параметр матрицы формата : Выборочная
Идентификатор кодека : XVID
Идентификатор кодека/Подсказка : XviD
Продолжительность : 1 ч. 16 м.
Битрейт : 2110 Кбит/сек
Ширина : 720 пикс.
Высота : 400 пикс.
Соотношение сторон : 16:9
Частота кадров : 25,000 кадр/сек
Цветовое пространство : YUV
Подвыборка цветности : 4:2:0
Битовая глубина : 8 бит
Тип развёртки : Прогрессивная
Метод сжатия : С потерями
Бит/(Пиксели*Кадры) : 0.293
Размер потока : 1,12 Гбайт (82%)
Библиотека кодирования : XviD 1.2.1 (UTC 2008-12-04)

Аудио
Идентификатор : 1
Формат : AC-3
Формат/Информация : Audio Coding 3
Расширение режима : CM (complete main)
Идентификатор кодека : 2000
Продолжительность : 1 ч. 16 м.
Вид битрейта : Постоянный
Битрейт : 448 Кбит/сек
Каналы : 2 канала
Расположение каналов : Front: L R
Частота : 48,0 КГц
Битовая глубина : 16 бит
Метод сжатия : С потерями
Размер потока : 244 Мбайт (17%)
Выравнивание : Разделение по промежуткам
Продолжительность промежутка : 40 мс. (1,00 видеокадр)
Время предзагрузки промежутка : 500 ms

Скриншоты:

Время раздачи: 24/7 по возможности
Все раздачи «Приключения Маши в Стране Чудес» на NNM-club
[NNM-Club.ru]_Priklyucheniya Mashi v Strane CHudes.2012.WEBRip.avi.torrent
 Торрент: Платиновая раздача  Зарегистрирован
 
Скачать


Примагнититься
 Зарегистрирован:   18 Июн 2013 21:16:14
 Размер:   1,37 GB  (
 Рейтинг:   4,6 (Голосов: 50)
 Поблагодарили:   194
 Проверка:   Оформление проверено модератором 18 Июн 2013 21:40:33
Как cкачать  ·  Как раздать  ·  Правильно оформить  ·  Поднять ратио!  
alexx_85_85
Стаж: 9 лет 4 мес.
Сообщений: 28
Ratio: 24,768
100%
Откуда: СССР
ussr.gif
китайская подделка "Маши и медведя" ?))
Квадрокуб
Стаж: 6 лет 9 мес.
Сообщений: 3
Ratio: 10,253
100%
"странное существо по имени Ники — белый полулев-полутигр, появившийся на свет из волшебного камня"
Это "странное существо" живёт в Новосибирском зоопарке, называется - лигр. Поучился путём скрещения тигра и льва.
Показать сообщения:   
Начать новую тему   Ответить на тему    Торрент-трекер NNM-Club -> Мультфильмы -> Зарубежные Мультфильмы (HD*Rip/LQ, DVDRip, SATRip, VHSRip) Часовой пояс: GMT + 3
Страница 1 из 1